Today is a free download without charge Download

Ведьма войны / Rebelle (Ким Нгуйен / Kim Nguyen) [2012, Канада, Драма, военный, WEB-DL 720p] DVO + Original Fre + Subs (Rus, Eng)

Reply to topic
 
Author
Message

Omen ®

Longevity: 8 years 5 months

Posts: 181087

Торрент-статистика

Post 18-May-2013 14:10

[Quote]

-Ведьма войны / Rebelle Страна: Канада
Жанр: Драма, военный
Год выпуска: 2001
Продолжительность: 01:30:08-Перевод: Профессиональный (многоголосый закадровый)
Cубтитры: английские, русские
Оригинальная аудиодорожка: французкий -Режиссер: Ким Нгуйен / Kim Nguyen-В ролях-Рашель Мванза, Ален Лино Мик Эли Бастьен, Серж Каниинда, Мизинга Мвинга, Ральф Проспер, Жан Кабуя, Дайан Увамахоро, Юпитер Боконджи, Старлетт Матата, Алекс Херабо-Описание-Гражданская война в Африке. После того, как родную деревню Комоны поджигают солдаты повстанческой армии, а её родители погибают, 12-летняя девочка становится ребёнком-воином. Командир отряда, в котором оказывается Комона, не только заставляет ребёнка учиться пользоваться оружием, но и ублажать его собственные сексуальных прихоти. Комона влюбляется в светловолосого мальчика, немногим старшего её самой, и вместе с ним сбегает из отряда.-Качество видео: WEB-DL-Контейнер: MKV-Видео: AVC, 1280x692 (1,85:1), ~3911 kbps, 23,976 fps,
Аудио: AC-3, 384 kbps, Dolby Digital, 3/2 (L,C,R,l,r) + LFE ch, 48 KHz
Аудио: AC-3
, 384 kbps, Dolby Digital, 3/2 (L,C,R,l,r) + LFE ch, 48 KHz |Original|
Формат субтитров: softsub (SRT)
Главы: есть-

MediaInfo

Полное имя : H:\Rebelle.WEB-DL_720p_DVO.384.mkv
Формат : Matroska
Версия формата : Version 2
Размер файла : 3,01 Гбайт
Продолжительность : 1 ч. 30 м.
Общий поток : 4774 Кбит/сек
Название фильма : Ведьма войны
Дата кодирования : UTC 2013-05-18 08:27:46
Программа кодирования : mkvmerge v5.5.0 ('Healer') built on Apr 24 2012 23:47:03
Библиотека кодирования : libebml v1.2.3 + libmatroska v1.3.0
Видео
Идентификатор : 1
Формат : AVC
Формат/Информация : Advanced Video Codec
Профиль формата : [email protected]
Параметр CABAC формата : Нет
Параметр ReFrames формата : 2 кадра
Идентификатор кодека : V_MPEG4/ISO/AVC
Продолжительность : 1 ч. 30 м.
Битрейт : 3911 Кбит/сек
Ширина : 1280 пикселей
Высота : 692 пикселя
Соотношение сторон : 1,85:1
Частота кадров : 23,976 кадра/сек
Цветовое пространство : YUV
Субдискретизация насыщенности : 4:2:0
Битовая глубина : 8 бит
Тип развёртки : Прогрессивная
Бит/(Пиксели*Кадры) : 0.184
Размер потока : 2,46 Гбайт (82%)
Заголовок : Rebelle
Язык : French
Default : Да
Forced : Да
Основные цвета : BT.709-5, BT.1361, IEC 61966-2-4, SMPTE RP177
Характеристики трансфера : BT.709-5, BT.1361
Коэффициенты матрицы : BT.709-5, BT.1361, IEC 61966-2-4 709, SMPTE RP177
Аудио #1
Идентификатор : 2
Формат : AC-3
Формат/Информация : Audio Coding 3
Расширение режима : CM (complete main)
Параметр Endianness формата : Big
Идентификатор кодека : A_AC3
Продолжительность : 1 ч. 30 м.
Вид битрейта : Постоянный
Битрейт : 384 Кбит/сек
Каналы : 6 каналов
Расположение каналов : Front: L C R, Side: L R, LFE
Частота : 48,0 КГц
Битовая глубина : 16 бит
Метод сжатия : С потерями
Размер потока : 248 Мбайт (8%)
Заголовок : DVO
Язык : Russian
Default : Да
Forced : Нет
Аудио #2
Идентификатор : 3
Формат : AC-3
Формат/Информация : Audio Coding 3
Расширение режима : CM (complete main)
Параметр Endianness формата : Big
Идентификатор кодека : A_AC3
Продолжительность : 1 ч. 30 м.
Вид битрейта : Постоянный
Битрейт : 384 Кбит/сек
Каналы : 6 каналов
Расположение каналов : Front: L C R, Side: L R, LFE
Частота : 48,0 КГц
Битовая глубина : 16 бит
Метод сжатия : С потерями
Размер потока : 248 Мбайт (8%)
Заголовок : Original
Язык : French
Default : Нет
Forced : Нет
Текст #1
Идентификатор : 4
Формат : UTF-8
Идентификатор кодека : S_TEXT/UTF8
Идентификатор кодека/Информация : UTF-8 Plain Text
Язык : Russian
Default : Нет
Forced : Нет
Текст #2
Идентификатор : 5
Формат : UTF-8
Идентификатор кодека : S_TEXT/UTF8
Идентификатор кодека/Информация : UTF-8 Plain Text
Язык : English
Default : Нет
Forced : Нет
Меню
00:00:00.000 : en:Opening Credits
00:05:50.000 : en:Working For The Rebels
00:10:56.000 : en:Training
00:16:09.000 : en:Ghosts
00:22:04.000 : en:War
00:28:10.000 : en:At Camp
00:36:46.000 : en:The Village
00:42:06.000 : en:A Trick
00:46:34.000 : en:The Chicken
00:55:45.000 : en:The Magician
01:02:29.000 : en:Protection
01:05:56.000 : en:In Pain
01:11:01.000 : en:At Night
01:15:17.000 : en:Her Baby
01:20:18.000 : en:A Proper Burial
01:25:08.000 : en:End Credits

Скриншоты

Other forum [Profile] [PM]
Display posts from previous:    
Reply to topic

The time now is: Today 23:20

All times are GMT + 3 Hours



You cannot post new topics in this forum
You cannot reply to topics in this forum
You cannot edit your posts in this forum
You cannot delete your posts in this forum
You cannot vote in polls in this forum
You cannot attach files in this forum
You cannot download files in this forum