Today is a free download without charge Download

Американская Мэри / American Mary (Джен Соска, Сильвия Соска / Jen Soska , Sylvia Soska) [2012, Канада, ужасы, триллер, BDRip 720p] DVO (den904 & DeadSno) + 4x Sub (Rus, Eng, Ger) + Original Eng

Reply to topic
 
Author
Message

Omen ®

Longevity: 8 years 5 months

Posts: 181087

Торрент-статистика

Post 18-May-2013 14:10

[Quote]

Американская Мэри / American Mary
«Appearances Are Everything»
- Страна: Канада
Студия: American Mary Productions, IndustryWorks Pictures, Twisted Twins Productions
Жанр: ужасы, триллер
Год выпуска: 2012
Продолжительность: 1:42:24
Перевод: Любительский (двухголосый закадровый) den904 & DeadSno, перевод - Janetta
Cубтитры: русские, английские [Full, SDH], немецкие
Оригинальная аудиодорожка: английская
Режиссер: Джен Соска, Сильвия Соска / Jen Soska , Sylvia Soska
В ролях: Кэтрин Изабель, Антонио Цупо, Тристан Риск, Дэвид Ловгрен, Паула Линдберг, Клэй Ст. Томас, Джон Эммет Трэйси, Твэн Холлидэй, Нельсон Вонг, Сильвия Соска, Джен Соска, Пол Энтони
Описание: Фильм расскажет нам историю Мэри Мэйсон, которая работает в салоне, специализирующемся на модификации тела человека. Вскоре она понимает что ей нравится уродовать тела и клиентов салона ей становится мало. Она решает уродовать людей на свой вкус, без их согласия.

Тип релиза: BDRip 720p [CHD]
Контейнер: MKV
Видео: 1280x534 (2,40:1), 23,976 fps, x264 ~4589 kbps avg, 0.280 bit/pixel
Аудио 1: 48 kHz, AC3 Dolby Digital, 3/2 (L,C,R,l,r) + LFE ch, 384 kbps (русская)
Аудио 2: 48 kHz, Digital Theater Systems, 3/2 (L,C,R,l,r) + LFE ch, 1510 kbps (английская)
Формат субтитров: softsub (SRT)
Чаптеры: есть

рейтинг MPAA: лицам до 17 лет обязательно присутствие взрослого

MediaInfo

ОбщееУникальный идентификатор : 224215413447272972710283772977948251860 (0xA8AE516043A99DB68AE6C8B40A4DD6D4)Полное имя : \American.Mary.2012.BluRay.720p.DTS.x264.mkvФормат : MatroskaВерсия формата : Version 2Размер файла : 4,64 ГбайтПродолжительность : 1 ч. 42 м.Общий поток : 6481 Кбит/секНазвание фильма : American.Mary.2012.BluRay.720p.DTS.x264-CHDДата кодирования : UTC 2013-05-15 19:56:42Программа кодирования : mkvmerge v4.5.0 ('Speed of Light') сборка от Feb 1 2011 02:10:32Библиотека кодирования : libebml v1.2.0 + libmatroska v1.1.0
ВидеоИдентификатор : 1Формат : AVCФормат/Информация : Advanced Video CodecПрофиль формата : [email protected]Параметр CABAC формата : ДаПараметр ReFrames формата : 10 кадровИдентификатор кодека : V_MPEG4/ISO/AVCПродолжительность : 1 ч. 42 м.Битрейт : 4589 Кбит/секШирина : 1280 пикселейВысота : 534 пикселяСоотношение сторон : 2,40:1Режим частоты кадров : ПостоянныйЧастота кадров : 23,976 кадра/секЦветовое пространство : YUVСубдискретизация насыщенности : 4:2:0Битовая глубина : 8 битТип развёртки : ПрогрессивнаяБит/(Пиксели*Кадры) : 0.280Размер потока : 3,19 Гбайт (69%)Заголовок : American.Mary.2012.BluRay.720p.DTS.x264-CHDБиблиотека кодирования : x264 core 130 r2273 b3065e6Настройки программы : cabac=1 / ref=10 / deblock=1:-3:-3 / analyse=0x3:0x113 / me=umh / subme=11 /psy=1 / psy_rd=1.10:0.10 / mixed_ref=1 / me_range=32 / chroma_me=1 / trellis=2 / 8x8dct=1 / cqm=0 / deadzone=21,11 /fast_pskip=0 / chroma_qp_offset=-2 / threads=12 / lookahead_threads=1 / sliced_threads=0 / nr=0 / decimate=1 /interlaced=0 / bluray_compat=0 / constrained_intra=0 / bframes=6 / b_pyramid=2 / b_adapt=2 / b_bias=0 / direct=3 /weightb=1 / open_gop=0 / weightp=2 / keyint=250 / keyint_min=23 / scenecut=40 / intra_refresh=0 / rc_lookahead=40 /rc=2pass / mbtree=0 / bitrate=4589 / ratetol=1.0 / qcomp=0.70 / qpmin=0 / qpmax=69 / qpstep=4 / cplxblur=20.0 /qblur=0.5 / vbv_maxrate=40000 / vbv_bufsize=30000 / nal_hrd=none / ip_ratio=1.40 / pb_ratio=1.30 / aq=2:0.90Язык : EnglishDefault : ДаForced : Нет
Аудио #1Идентификатор : 2Формат : AC-3Формат/Информация : Audio Coding 3Расширение режима : CM (complete main)Параметр Endianness формата : BigИдентификатор кодека : A_AC3Продолжительность : 1 ч. 42 м.Вид битрейта : ПостоянныйБитрейт : 384 Кбит/секКаналы : 6 каналовРасположение каналов : Front: L C R, Side: L R, LFEЧастота : 48,0 КГцБитовая глубина : 16 битМетод сжатия : С потерямиРазмер потока : 281 Мбайт (6%)Заголовок : ac3 5.1 384 kbpsЯзык : RussianDefault : ДаForced : Нет
Аудио #2Идентификатор : 3Формат : DTSФормат/Информация : Digital Theater SystemsРежим : 16Параметр Endianness формата : BigИдентификатор кодека : A_DTSПродолжительность : 1 ч. 42 м.Вид битрейта : ПостоянныйБитрейт : 1509 Кбит/секКаналы : 6 каналовРасположение каналов : Front: L C R, Side: L R, LFEЧастота : 48,0 КГцБитовая глубина : 24 битМетод сжатия : С потерямиЗадержка видео : 11 мс.Размер потока : 1,08 Гбайт (23%)Заголовок : dts 5.1 1510 KbpsЯзык : EnglishDefault : НетForced : Нет
Текст #1Идентификатор : 4Формат : UTF-8Идентификатор кодека : S_TEXT/UTF8Идентификатор кодека/Информация : UTF-8 Plain TextЗаголовок : Sub-fullЯзык : RussianDefault : НетForced : Нет
Текст #2Идентификатор : 5Формат : UTF-8Идентификатор кодека : S_TEXT/UTF8Идентификатор кодека/Информация : UTF-8 Plain TextЗаголовок : Sub-fullЯзык : EnglishDefault : НетForced : Нет
Текст #3Идентификатор : 6Формат : UTF-8Идентификатор кодека : S_TEXT/UTF8Идентификатор кодека/Информация : UTF-8 Plain TextЗаголовок : Sub-fullЯзык : GermanDefault : НетForced : Нет
Текст #4Идентификатор : 7Формат : UTF-8Идентификатор кодека : S_TEXT/UTF8Идентификатор кодека/Информация : UTF-8 Plain TextЗаголовок : Sub-full SDHЯзык : EnglishDefault : НетForced : Нет
Меню00:00:00.000 : en:00:00:00.00000:10:13.446 : en:00:10:13.44600:21:37.171 : en:00:21:37.17100:30:40.005 : en:00:30:40.00500:39:10.139 : en:00:39:10.13900:50:33.739 : en:00:50:33.73901:02:46.471 : en:01:02:46.47101:14:45.773 : en:01:14:45.77301:26:42.906 : en:01:26:42.90601:37:55.495 : en:01:37:55.495

Видеоряд от CHD

American.Mary.2012.BluRay.720p.DTS.x264-CHD
American.Mary.2012.BluRay.720p.DTS.x264-CHDRELEASE DATE....: 04/12/2013THEATRE DATE....: 2012iMDB URL........: http://www.imdb.com/title/tt1959332iMDB RATiNG.....: 6.1/10 (3,022 votes)GENRE...........: Horror, ThrillerSOURCE .........: American Mary 2012 BluRay 1080p AVC DTS-HD MA5.1-CHDBitsViDEO BiTRATE...: x264 L4.1 High @ 4589 KbpsFRAME RATE......: 23.976 fpsAUDiO 1.........: English DTS 5.1 1509KbpsRUNTiME.........: 01:42:24 (h:m:s)ASPECT RATiO....: 2.397 : 1RESOLUTiON......: 1280 X 534SUBTiTLES.......: N/ACHAPTERS........: N/AFilE SiZE.......: 4.36 GENCODER.........: [email protected]

Скриншоты


Other forum [Profile] [PM]
Display posts from previous:    
Reply to topic

The time now is: Today 23:42

All times are GMT + 3 Hours



You cannot post new topics in this forum
You cannot reply to topics in this forum
You cannot edit your posts in this forum
You cannot delete your posts in this forum
You cannot vote in polls in this forum
You cannot attach files in this forum
You cannot download files in this forum