Today is a free download without charge Download

Афтершок / Aftershock (Николас Лопез / Nicolas Lopez) [2012, США, Триллер, криминал, приключения, WEB-DL] DVO (DeadSno & den904 / Janetta) + Sub Eng

Reply to topic
 
Author
Message

Omen ®

Longevity: 8 years 5 months

Posts: 181087

Торрент-статистика

Post 18-May-2013 01:59

[Quote]

Афтершок / Aftershock- Страна: США, Чили / Cross Creek Pictures
Жанр: Триллер, криминал, приключения
Год выпуска: 2012
Продолжительность: 01:29:43
Перевод: Любительский (двухголосый закадровый) (DeadSno & den904 / Janetta)
Cубтитры: английские-Режиссер: Николас Лопез / Nicolas Lopez-Продюсер: Мигель Асенсио, Брайан Оливер, Элай Рот
Актеры: Элай Рот, Андреа Ошварт, Эриель Леви, Николас Мартинез, Лоренца Иззо, Наташа Яровенко, Селена Гомес, Игнасия Алламанд, Дайана Амиго, Пас Баскуньян-Описание: Находясь в Чили, группа путешественников посещает подземный ночной клуб в тот самый момент, когда начинается мощное землетрясение. Выбравшись на поверхность, они тут же понимают, что кошмар для них только начался.-Дата мировой премьеры: 12 сентября 2012
Дата российской премьеры: 4 июля 2013, «Top Film Distribution»- -Сэмпл: http://multi-up.com/866291-Качество видео: WEB-DL 720p
Формат видео: MKV
Видео: MPEG-4 AVC/H.264, 1280x718, ~2833 Кбит/с, 23.976 fps
Аудио: Русский (AC3, 6 ch, 384 Кбит/с, 48.0 KHz)
Аудио 2: Английский (AC3, 6 ch, 384 Кбит/с, 48.0 KHz)-Доп. информация о субтитрах: Вшитые отключаемые-

MediaInfo

General
Unique ID : 215244151520816559417649709404074061358 (0xA1EE84036555BEB895E7AB43B654AE2E)
Complete name : H:\Rutracker\Aftershock.2012.720p.WEB-DL.X264-WEBiOS.jasinpapa.mkv
Format : Matroska
Format version : Version 4 / Version 2
File size : 2.29 GiB
Duration : 1h 29mn
Overall bit rate : 3 674 Kbps
Encoded date : UTC 2013-05-16 18:43:39
Writing application : mkvmerge v6.1.0 ('Old Devil') built on Mar 2 2013 14:32:37
Writing library : libebml v1.3.0 + libmatroska v1.4.0
Video
ID : 1
Format : AVC
Format/Info : Advanced Video Codec
Format profile : [email protected]
Format settings, CABAC : Yes
Format settings, ReFrames : 5 frames
Codec ID : V_MPEG4/ISO/AVC
Duration : 1h 29mn
Bit rate : 2 833 Kbps
Nominal bit rate : 3 000 Kbps
Width : 1 280 pixels
Height : 718 pixels
Display aspect ratio : 16:9
Frame rate mode : Constant
Frame rate : 23.976 fps
Color space : YUV
Chroma subsampling : 4:2:0
Bit depth : 8 bits
Scan type : Progressive
Bits/(Pixel*Frame) : 0.129
Stream size : 1.77 GiB (77%)
Writing library : x264 core 130 r2273 b3065e6
Encoding settings : cabac=1 / ref=5 / deblock=1:0:0 / analyse=0x3:0x113 / me=umh / subme=7 / psy=1 / psy_rd=1.00:0.00 / mixed_ref=1 / me_range=16 / chroma_me=1 / trellis=1 / 8x8dct=1 / cqm=0 / deadzone=21,11 / fast_pskip=1 / chroma_qp_offset=-2 / threads=18 / lookahead_threads=3 / sliced_threads=0 / nr=0 / decimate=1 / interlaced=0 / bluray_compat=0 / constrained_intra=0 / bframes=3 / b_pyramid=2 / b_adapt=1 / b_bias=0 / direct=3 / weightb=1 / open_gop=0 / weightp=2 / keyint=240 / keyint_min=23 / scenecut=40 / intra_refresh=0 / rc_lookahead=50 / rc=abr / mbtree=1 / bitrate=3000 / ratetol=1.0 / qcomp=0.60 / qpmin=0 / qpmax=69 / qpstep=4 / ip_ratio=1.40 / aq=1:1.00
Language : English
Default : Yes
Forced : No
Audio #1
ID : 2
Format : AC-3
Format/Info : Audio Coding 3
Mode extension : CM (complete main)
Format settings, Endianness : Big
Codec ID : A_AC3
Duration : 1h 29mn
Bit rate mode : Constant
Bit rate : 384 Kbps
Channel(s) : 6 channels
Channel positions : Front: L C R, Side: L R, LFE
Sampling rate : 48.0 KHz
Bit depth : 16 bits
Compression mode : Lossy
Stream size : 245 MiB (10%)
Title : [DeadSno & den904]
Language : Russian
Default : Yes
Forced : Yes
Audio #2
ID : 3
Format : AC-3
Format/Info : Audio Coding 3
Mode extension : CM (complete main)
Format settings, Endianness : Big
Codec ID : A_AC3
Duration : 1h 29mn
Bit rate mode : Constant
Bit rate : 384 Kbps
Channel(s) : 6 channels
Channel positions : Front: L C R, Side: L R, LFE
Sampling rate : 48.0 KHz
Bit depth : 16 bits
Compression mode : Lossy
Stream size : 245 MiB (10%)
Language : English
Default : No
Forced : No
Text
ID : 4
Format : UTF-8
Codec ID : S_TEXT/UTF8
Codec ID/Info : UTF-8 Plain Text
Language : English
Default : No
Forced : No
Menu
00:00:00.000 : en:Chapter 01
00:07:22.000 : en:Chapter 02
00:16:02.000 : en:Chapter 03
00:23:35.000 : en:Chapter 04
00:30:07.000 : en:Chapter 05
00:42:00.000 : en:Chapter 06
00:51:06.000 : en:Chapter 07
00:57:08.000 : en:Chapter 08
01:04:03.000 : en:Chapter 09
01:12:15.000 : en:Chapter 10
01:20:01.000 : en:Chapter 11
01:23:56.000 : en:Chapter 12

Скриншот c названием фильма

Скриншоты

-
Other forum [Profile] [PM]
Display posts from previous:    
Reply to topic

The time now is: Today 09:43

All times are GMT + 3 Hours



You cannot post new topics in this forum
You cannot reply to topics in this forum
You cannot edit your posts in this forum
You cannot delete your posts in this forum
You cannot vote in polls in this forum
You cannot attach files in this forum
You cannot download files in this forum