Today is a free download without charge Download

Caro Emerald - The Shocking Miss Emerald (2013) [MP3|256 кб/с]<jazz-pop, electroswing>

Reply to topic
 
Author
Message

UndegraundMen ®

Longevity: 8 years 11 months

Posts: 25145

Торрент-статистика

Post 18-May-2013 00:05

[Quote]

Caro Emerald - The Shocking Miss Emerald (2013)- Год: 2013
Жанр: jazz-pop, electroswing
Продолжительность: 00:51:13
Кодек: MP3
Битрейт: 256 кб/с
Тип битрейта: VBR
Трек лист:
01.Miss Emerald: Intro
02.One Day
03.Coming Back As A Man
04.Tangled Up
05.Completely
06.Black Valentine
07.Pack Up The Louie
08.I Belong To You
09.The Maestro
10.Liquid Lunch
11.Excuse My French
12.Paris
13.My 2 Cents
14.The Wonderful In You

MediaInfo&#58;

Общее
Полное имя : D:\МОИ ФАЙЛЫ\МОЯ МЕДИАТЕКА\Caro Emerald-The Shoking Miss Emerald (2013)mp3\01 Miss Emerald_ Intro.mp3
Формат : MPEG Audio
Размер файла : 1,20 Мбайт
Продолжительность : 39 с.
Режим общего битрейта : Переменный
Общий поток : 256 Кбит/сек
Альбом : The Shocking Miss Emerald
Альбом/Исполнитель : Caro Emerald
Часть/Положение : 1
Часть/Всего : 1
Трек : Miss Emerald: Intro
Трек/Положение : 1
Трек/Всего : 15
Исполнитель : Caro Emerald
Композитор : Jules Buckley
Жанр : Pop
Дата выпуска : UTC 2013-05- 3T07:00:00Z
Библиотека кодирования : LAME3.99.5
Настройки программы : Lavf53.18.0
Правообладатель : ℗ 2013 Grandmono Records
major_brand : M4A
minor_version : 0
compatible_brands : M4A mp42isom
gapless_playback : 0
media_type : 1
Аудио
Формат : MPEG Audio
Версия формата : Version 1
Профиль формата : Layer 3
Режим : Joint stereo
Продолжительность : 39 с.
Вид битрейта : Переменный
Битрейт : 256 Кбит/сек
Каналы : 2 канала
Частота : 48,0 КГц
Метод сжатия : С потерями
Размер потока : 1,20 Мбайт (100%)
Библиотека кодирования : LAME3.99.5
Общее
Полное имя : D:\МОИ ФАЙЛЫ\МОЯ МЕДИАТЕКА\Caro Emerald-The Shoking Miss Emerald (2013)mp3\02 One Day.mp3
Формат : MPEG Audio
Размер файла : 8,33 Мбайт
Продолжительность : 4 м. 32 с.
Режим общего битрейта : Переменный
Общий поток : 256 Кбит/сек
Альбом : The Shocking Miss Emerald
Альбом/Исполнитель : Caro Emerald
Часть/Положение : 1
Часть/Всего : 1
Трек : One Day
Трек/Положение : 2
Трек/Всего : 15
Исполнитель : Caro Emerald
Композитор : David Schreurs & Vincent Degiorgio
Жанр : Pop
Дата выпуска : UTC 2013-05- 3T07:00:00Z
Библиотека кодирования : LAME3.99.5
Настройки программы : Lavf53.18.0
Правообладатель : ℗ 2013 Grandmono Records
major_brand : M4A
minor_version : 0
compatible_brands : M4A mp42isom
gapless_playback : 0
media_type : 1
Аудио
Формат : MPEG Audio
Версия формата : Version 1
Профиль формата : Layer 3
Режим : Joint stereo
Расширение режима : MS Stereo
Продолжительность : 4 м. 32 с.
Вид битрейта : Переменный
Битрейт : 256 Кбит/сек
Каналы : 2 канала
Частота : 48,0 КГц
Метод сжатия : С потерями
Размер потока : 8,33 Мбайт (100%)
Библиотека кодирования : LAME3.99.5
Общее
Полное имя : D:\МОИ ФАЙЛЫ\МОЯ МЕДИАТЕКА\Caro Emerald-The Shoking Miss Emerald (2013)mp3\03 Coming Back As a Man.mp3
Формат : MPEG Audio
Размер файла : 6,55 Мбайт
Продолжительность : 3 м. 34 с.
Режим общего битрейта : Переменный
Общий поток : 256 Кбит/сек
Альбом : The Shocking Miss Emerald
Альбом/Исполнитель : Caro Emerald
Часть/Положение : 1
Часть/Всего : 1
Трек : Coming Back As a Man
Трек/Положение : 3
Трек/Всего : 15
Исполнитель : Caro Emerald
Композитор : Jan Van Wieringen, David Schreurs, Robin Veldman, Wieger Hoogendorp & Vincent Degiorgio
Жанр : Pop
Дата выпуска : UTC 2013-05- 3T07:00:00Z
Библиотека кодирования : LAME3.99.5
Настройки программы : Lavf53.18.0
Правообладатель : ℗ 2013 Grandmono Records
major_brand : M4A
minor_version : 0
compatible_brands : M4A mp42isom
gapless_playback : 0
media_type : 1
Аудио
Формат : MPEG Audio
Версия формата : Version 1
Профиль формата : Layer 3
Режим : Joint stereo
Продолжительность : 3 м. 34 с.
Вид битрейта : Переменный
Битрейт : 256 Кбит/сек
Каналы : 2 канала
Частота : 48,0 КГц
Метод сжатия : С потерями
Размер потока : 6,55 Мбайт (100%)
Библиотека кодирования : LAME3.99.5
Общее
Полное имя : D:\МОИ ФАЙЛЫ\МОЯ МЕДИАТЕКА\Caro Emerald-The Shoking Miss Emerald (2013)mp3\04 Tangled Up.mp3
Формат : MPEG Audio
Размер файла : 5,96 Мбайт
Продолжительность : 3 м. 15 с.
Режим общего битрейта : Переменный
Общий поток : 256 Кбит/сек
Альбом : The Shocking Miss Emerald
Альбом/Исполнитель : Caro Emerald
Часть/Положение : 1
Часть/Всего : 1
Трек : Tangled Up
Трек/Положение : 4
Трек/Всего : 15
Исполнитель : Caro Emerald
Композитор : David Schreurs, Vincent Degiorgio & Guy Chambers
Жанр : Pop
Дата выпуска : UTC 2013-05- 3T07:00:00Z
Библиотека кодирования : LAME3.99.5
Настройки программы : Lavf53.18.0
Правообладатель : ℗ 2013 Grandmono Records
major_brand : M4A
minor_version : 0
compatible_brands : M4A mp42isom
gapless_playback : 0
media_type : 1
Аудио
Формат : MPEG Audio
Версия формата : Version 1
Профиль формата : Layer 3
Режим : Joint stereo
Продолжительность : 3 м. 15 с.
Вид битрейта : Переменный
Битрейт : 256 Кбит/сек
Каналы : 2 канала
Частота : 48,0 КГц
Метод сжатия : С потерями
Размер потока : 5,96 Мбайт (100%)
Библиотека кодирования : LAME3.99.5
Общее
Полное имя : D:\МОИ ФАЙЛЫ\МОЯ МЕДИАТЕКА\Caro Emerald-The Shoking Miss Emerald (2013)mp3\05 Completely.mp3
Формат : MPEG Audio
Размер файла : 4,56 Мбайт
Продолжительность : 2 м. 29 с.
Режим общего битрейта : Переменный
Общий поток : 256 Кбит/сек
Альбом : The Shocking Miss Emerald
Альбом/Исполнитель : Caro Emerald
Часть/Положение : 1
Часть/Всего : 1
Трек : Completely
Трек/Положение : 5
Трек/Всего : 15
Исполнитель : Caro Emerald
Композитор : Caroline Van Der Leeuw, David Schreurs, Wieger Hoogendorp & Vincent Degiorgio
Жанр : Pop
Дата выпуска : UTC 2013-05- 3T07:00:00Z
Библиотека кодирования : LAME3.99.5
Настройки программы : Lavf53.18.0
Правообладатель : ℗ 2013 Grandmono Records
major_brand : M4A
minor_version : 0
compatible_brands : M4A mp42isom
gapless_playback : 0
media_type : 1
Аудио
Формат : MPEG Audio
Версия формата : Version 1
Профиль формата : Layer 3
Режим : Joint stereo
Расширение режима : MS Stereo
Продолжительность : 2 м. 29 с.
Вид битрейта : Переменный
Битрейт : 256 Кбит/сек
Каналы : 2 канала
Частота : 48,0 КГц
Метод сжатия : С потерями
Размер потока : 4,56 Мбайт (100%)
Библиотека кодирования : LAME3.99.5
Общее
Полное имя : D:\МОИ ФАЙЛЫ\МОЯ МЕДИАТЕКА\Caro Emerald-The Shoking Miss Emerald (2013)mp3\06 Black Valentine.mp3
Формат : MPEG Audio
Размер файла : 9,27 Мбайт
Продолжительность : 5 м. 3 с.
Режим общего битрейта : Переменный
Общий поток : 256 Кбит/сек
Альбом : The Shocking Miss Emerald
Альбом/Исполнитель : Caro Emerald
Часть/Положение : 1
Часть/Всего : 1
Трек : Black Valentine
Трек/Положение : 6
Трек/Всего : 15
Исполнитель : Caro Emerald
Композитор : David Schreurs, Vincent Degiorgio, Wieger Hoogendorp & Robin Veldman
Жанр : Pop
Дата выпуска : UTC 2013-05- 3T07:00:00Z
Дата кодирования : UTC 1974-07- 7 15:14:21
Библиотека кодирования : LAME3.99.5
Настройки программы : Lavf53.18.0
Правообладатель : ℗ 2013 Grandmono Records
major_brand : M4A
minor_version : 0
compatible_brands : M4A mp42isom
gapless_playback : 0
media_type : 1
Аудио
Формат : MPEG Audio
Версия формата : Version 1
Профиль формата : Layer 3
Режим : Joint stereo
Продолжительность : 5 м. 3 с.
Вид битрейта : Переменный
Битрейт : 256 Кбит/сек
Каналы : 2 канала
Частота : 48,0 КГц
Метод сжатия : С потерями
Размер потока : 9,27 Мбайт (100%)
Библиотека кодирования : LAME3.99.5
Общее
Полное имя : D:\МОИ ФАЙЛЫ\МОЯ МЕДИАТЕКА\Caro Emerald-The Shoking Miss Emerald (2013)mp3\07 Pack Up the Louie.mp3
Формат : MPEG Audio
Размер файла : 6,50 Мбайт
Продолжительность : 3 м. 33 с.
Режим общего битрейта : Переменный
Общий поток : 256 Кбит/сек
Альбом : The Shocking Miss Emerald
Альбом/Исполнитель : Caro Emerald
Часть/Положение : 1
Часть/Всего : 1
Трек : Pack Up the Louie
Трек/Положение : 7
Трек/Всего : 15
Исполнитель : Caro Emerald
Композитор : David Schreurs & Vincent Degiorgio
Жанр : Pop
Дата выпуска : UTC 2013-05- 3T07:00:00Z
Дата кодирования : UTC 1987-11- 1 03:41:01
Библиотека кодирования : LAME3.99.5
Настройки программы : Lavf53.18.0
Правообладатель : ℗ 2013 Grandmono Records
major_brand : M4A
minor_version : 0
compatible_brands : M4A mp42isom
gapless_playback : 0
media_type : 1
Аудио
Формат : MPEG Audio
Версия формата : Version 1
Профиль формата : Layer 3
Режим : Joint stereo
Расширение режима : MS Stereo
Продолжительность : 3 м. 33 с.
Вид битрейта : Переменный
Битрейт : 256 Кбит/сек
Каналы : 2 канала
Частота : 48,0 КГц
Метод сжатия : С потерями
Размер потока : 6,50 Мбайт (100%)
Библиотека кодирования : LAME3.99.5
Общее
Полное имя : D:\МОИ ФАЙЛЫ\МОЯ МЕДИАТЕКА\Caro Emerald-The Shoking Miss Emerald (2013)mp3\08 I Belong To You.mp3
Формат : MPEG Audio
Размер файла : 6,35 Мбайт
Продолжительность : 3 м. 27 с.
Режим общего битрейта : Переменный
Общий поток : 256 Кбит/сек
Альбом : The Shocking Miss Emerald
Альбом/Исполнитель : Caro Emerald
Часть/Положение : 1
Часть/Всего : 1
Трек : I Belong To You
Трек/Положение : 8
Трек/Всего : 15
Исполнитель : Caro Emerald
Композитор : David Schreurs, Vincent Degiorgio, Bert Kaempfert & Herbert Rehbein
Жанр : Pop
Дата выпуска : UTC 2013-05- 3T07:00:00Z
Дата кодирования : UTC 2000-02- 2 07:27:09
Библиотека кодирования : LAME3.99.5
Настройки программы : Lavf53.18.0
Правообладатель : ℗ 2013 Grandmono Records
major_brand : M4A
minor_version : 0
compatible_brands : M4A mp42isom
gapless_playback : 0
media_type : 1
Аудио
Формат : MPEG Audio
Версия формата : Version 1
Профиль формата : Layer 3
Режим : Joint stereo
Продолжительность : 3 м. 27 с.
Вид битрейта : Переменный
Битрейт : 256 Кбит/сек
Каналы : 2 канала
Частота : 48,0 КГц
Метод сжатия : С потерями
Размер потока : 6,35 Мбайт (100%)
Библиотека кодирования : LAME3.99.5
Общее
Полное имя : D:\МОИ ФАЙЛЫ\МОЯ МЕДИАТЕКА\Caro Emerald-The Shoking Miss Emerald (2013)mp3\09 The Maestro.mp3
Формат : MPEG Audio
Размер файла : 4,80 Мбайт
Продолжительность : 2 м. 37 с.
Режим общего битрейта : Переменный
Общий поток : 256 Кбит/сек
Альбом : The Shocking Miss Emerald
Альбом/Исполнитель : Caro Emerald
Часть/Положение : 1
Часть/Всего : 1
Трек : The Maestro
Трек/Положение : 9
Трек/Всего : 15
Исполнитель : Caro Emerald
Композитор : Daan Herweg, David Schreurs, Jan Van Wieringen, Caroline Van Der Leeuw & Vincent Degiorgio
Жанр : Pop
Дата выпуска : UTC 2013-05- 3T07:00:00Z
Дата кодирования : UTC 2010-03- 0 17:52:13
Библиотека кодирования : LAME3.99.5
Настройки программы : Lavf53.18.0
Правообладатель : ℗ 2013 Grandmono Records
major_brand : M4A
minor_version : 0
compatible_brands : M4A mp42isom
gapless_playback : 0
media_type : 1
Аудио
Формат : MPEG Audio
Версия формата : Version 1
Профиль формата : Layer 3
Режим : Joint stereo
Расширение режима : MS Stereo
Продолжительность : 2 м. 37 с.
Вид битрейта : Переменный
Битрейт : 256 Кбит/сек
Каналы : 2 канала
Частота : 48,0 КГц
Метод сжатия : С потерями
Размер потока : 4,80 Мбайт (100%)
Библиотека кодирования : LAME3.99.5
Общее
Полное имя : D:\МОИ ФАЙЛЫ\МОЯ МЕДИАТЕКА\Caro Emerald-The Shoking Miss Emerald (2013)mp3\10 Liquid Lunch.mp3
Формат : MPEG Audio
Размер файла : 7,32 Мбайт
Продолжительность : 3 м. 59 с.
Режим общего битрейта : Переменный
Общий поток : 256 Кбит/сек
Альбом : The Shocking Miss Emerald
Альбом/Исполнитель : Caro Emerald
Часть/Положение : 1
Часть/Всего : 1
Трек : Liquid Lunch
Трек/Положение : 10
Трек/Всего : 15
Исполнитель : Caro Emerald
Композитор : Jan Van Wieringen, David Schreurs, Wieger Hoogendorp, Robin Veldman & Vincent Degiorgio
Жанр : Pop
Дата выпуска : UTC 2013-05- 3T07:00:00Z
Дата кодирования : UTC 2022-12- 3 01:58:37
Библиотека кодирования : LAME3.99.5
Настройки программы : Lavf53.18.0
Правообладатель : ℗ 2013 Grandmono Records
major_brand : M4A
minor_version : 0
compatible_brands : M4A mp42isom
gapless_playback : 0
media_type : 1
Аудио
Формат : MPEG Audio
Версия формата : Version 1
Профиль формата : Layer 3
Режим : Joint stereo
Продолжительность : 3 м. 59 с.
Вид битрейта : Переменный
Битрейт : 256 Кбит/сек
Каналы : 2 канала
Частота : 48,0 КГц
Метод сжатия : С потерями
Размер потока : 7,32 Мбайт (100%)
Библиотека кодирования : LAME3.99.5
Общее
Полное имя : D:\МОИ ФАЙЛЫ\МОЯ МЕДИАТЕКА\Caro Emerald-The Shoking Miss Emerald (2013)mp3\11 Excuse My French.mp3
Формат : MPEG Audio
Размер файла : 7,05 Мбайт
Продолжительность : 3 м. 50 с.
Режим общего битрейта : Переменный
Общий поток : 256 Кбит/сек
Альбом : The Shocking Miss Emerald
Альбом/Исполнитель : Caro Emerald
Часть/Положение : 1
Часть/Всего : 1
Трек : Excuse My French
Трек/Положение : 11
Трек/Всего : 15
Исполнитель : Caro Emerald
Композитор : David Schreurs & Vincent Degiorgio
Жанр : Pop
Дата выпуска : UTC 2013-05- 3T07:00:00Z
Дата кодирования : UTC 2036-03- 8 14:25:17
Библиотека кодирования : LAME3.99.5
Настройки программы : Lavf53.18.0
Правообладатель : ℗ 2013 Grandmono Records
major_brand : M4A
minor_version : 0
compatible_brands : M4A mp42isom
gapless_playback : 0
media_type : 1
Аудио
Формат : MPEG Audio
Версия формата : Version 1
Профиль формата : Layer 3
Режим : Joint stereo
Расширение режима : MS Stereo
Продолжительность : 3 м. 50 с.
Вид битрейта : Переменный
Битрейт : 256 Кбит/сек
Каналы : 2 канала
Частота : 48,0 КГц
Метод сжатия : С потерями
Размер потока : 7,05 Мбайт (100%)
Библиотека кодирования : LAME3.99.5
Общее
Полное имя : D:\МОИ ФАЙЛЫ\МОЯ МЕДИАТЕКА\Caro Emerald-The Shoking Miss Emerald (2013)mp3\12 Paris.mp3
Формат : MPEG Audio
Размер файла : 8,77 Мбайт
Продолжительность : 4 м. 47 с.
Режим общего битрейта : Переменный
Общий поток : 256 Кбит/сек
Альбом : The Shocking Miss Emerald
Альбом/Исполнитель : Caro Emerald
Часть/Положение : 1
Часть/Всего : 1
Трек : Paris
Трек/Положение : 12
Трек/Всего : 15
Исполнитель : Caro Emerald
Композитор : David Schreurs, Vincent Degiorgio, Caroline Van Der Leeuw & Wieger Hoogendorp
Жанр : Pop
Дата выпуска : UTC 2013-05- 3T07:00:00Z
Библиотека кодирования : LAME3.99.5
Настройки программы : Lavf53.18.0
Правообладатель : ℗ 2013 Grandmono Records
major_brand : M4A
minor_version : 0
compatible_brands : M4A mp42isom
gapless_playback : 0
media_type : 1
Аудио
Формат : MPEG Audio
Версия формата : Version 1
Профиль формата : Layer 3
Режим : Joint stereo
Расширение режима : MS Stereo
Продолжительность : 4 м. 47 с.
Вид битрейта : Переменный
Битрейт : 256 Кбит/сек
Каналы : 2 канала
Частота : 48,0 КГц
Метод сжатия : С потерями
Размер потока : 8,76 Мбайт (100%)
Библиотека кодирования : LAME3.99.5
Общее
Полное имя : D:\МОИ ФАЙЛЫ\МОЯ МЕДИАТЕКА\Caro Emerald-The Shoking Miss Emerald (2013)mp3\13 My Two Cents.mp3
Формат : MPEG Audio
Размер файла : 6,89 Мбайт
Продолжительность : 3 м. 45 с.
Режим общего битрейта : Переменный
Общий поток : 256 Кбит/сек
Альбом : The Shocking Miss Emerald
Альбом/Исполнитель : Caro Emerald
Часть/Положение : 1
Часть/Всего : 1
Трек : My Two Cents
Трек/Положение : 13
Трек/Всего : 15
Исполнитель : Caro Emerald
Композитор : David Schreurs, Vincent Degiorgio & Caroline Van Der Leeuw
Жанр : Pop
Дата выпуска : UTC 2013-05- 3T07:00:00Z
Библиотека кодирования : LAME3.99.5
Настройки программы : Lavf53.18.0
Правообладатель : ℗ 2013 Grandmono Records
major_brand : M4A
minor_version : 0
compatible_brands : M4A mp42isom
gapless_playback : 0
media_type : 1
Аудио
Формат : MPEG Audio
Версия формата : Version 1
Профиль формата : Layer 3
Режим : Joint stereo
Расширение режима : MS Stereo
Продолжительность : 3 м. 45 с.
Вид битрейта : Переменный
Битрейт : 256 Кбит/сек
Каналы : 2 канала
Частота : 48,0 КГц
Метод сжатия : С потерями
Размер потока : 6,89 Мбайт (100%)
Библиотека кодирования : LAME3.99.5
Общее
Полное имя : D:\МОИ ФАЙЛЫ\МОЯ МЕДИАТЕКА\Caro Emerald-The Shoking Miss Emerald (2013)mp3\14 The Wonderful In You.mp3
Формат : MPEG Audio
Размер файла : 5,76 Мбайт
Продолжительность : 3 м. 8 с.
Режим общего битрейта : Переменный
Общий поток : 256 Кбит/сек
Альбом : The Shocking Miss Emerald
Альбом/Исполнитель : Caro Emerald
Часть/Положение : 1
Часть/Всего : 1
Трек : The Wonderful In You
Трек/Положение : 14
Трек/Всего : 15
Исполнитель : Caro Emerald
Композитор : Caroline Van Der Leeuw, Wieger Hoogendorp & Vincent Degiorgio
Жанр : Pop
Дата выпуска : UTC 2013-05- 3T07:00:00Z
Библиотека кодирования : LAME3.99.5
Настройки программы : Lavf53.18.0
Правообладатель : ℗ 2013 Grandmono Records
major_brand : M4A
minor_version : 0
compatible_brands : M4A mp42isom
gapless_playback : 0
media_type : 1
Аудио
Формат : MPEG Audio
Версия формата : Version 1
Профиль формата : Layer 3
Режим : Joint stereo
Расширение режима : MS Stereo
Продолжительность : 3 м. 8 с.
Вид битрейта : Переменный
Битрейт : 256 Кбит/сек
Каналы : 2 канала
Частота : 48,0 КГц
Метод сжатия : С потерями
Размер потока : 5,76 Мбайт (100%)
Библиотека кодирования : LAME3.99.5
Общее
Полное имя : D:\МОИ ФАЙЛЫ\МОЯ МЕДИАТЕКА\Caro Emerald-The Shoking Miss Emerald (2013)mp3\15 Tell Me How Long.mp3
Формат : MPEG Audio
Размер файла : 4,48 Мбайт
Продолжительность : 2 м. 26 с.
Режим общего битрейта : Переменный
Общий поток : 256 Кбит/сек
Альбом : The Shocking Miss Emerald
Альбом/Исполнитель : Caro Emerald
Часть/Положение : 1
Часть/Всего : 1
Трек : Tell Me How Long
Трек/Положение : 15
Трек/Всего : 15
Исполнитель : Caro Emerald
Композитор : David Schreurs, Vincent Degiorgio & Caroline Van Der Leeuw
Жанр : Pop
Дата выпуска : UTC 2013-05- 3T07:00:00Z
Библиотека кодирования : LAME3.99.5
Настройки программы : Lavf53.18.0
Правообладатель : ℗ 2013 Grandmono Records
major_brand : M4A
minor_version : 0
compatible_brands : M4A mp42isom
gapless_playback : 0
media_type : 1
Аудио
Формат : MPEG Audio
Версия формата : Version 1
Профиль формата : Layer 3
Режим : Joint stereo
Расширение режима : MS Stereo
Продолжительность : 2 м. 26 с.
Вид битрейта : Переменный
Битрейт : 256 Кбит/сек
Каналы : 2 канала
Частота : 48,0 КГц
Метод сжатия : С потерями
Размер потока : 4,48 Мбайт (100%)
Библиотека кодирования : LAME3.99.5
Общее
Полное имя : D:\МОИ ФАЙЛЫ\МОЯ МЕДИАТЕКА\Caro Emerald-The Shoking Miss Emerald (2013)mp3\Caro Emerald.jpg
Формат : JPEG
Размер файла : 50,1 Кбайт
Изображения
Формат : JPEG
Ширина : 600 пикселей
Высота : 600 пикселей
Субдискретизация насыщенности : 4:2:0
Битовая глубина : 8 бит
Метод сжатия : С потерями
Общее
Полное имя : D:\МОИ ФАЙЛЫ\МОЯ МЕДИАТЕКА\Caro Emerald-The Shoking Miss Emerald (2013)mp3\Thumbs.db
Размер файла : 8,50 Кбайт

Спектр

       
Время раздачи: круглосуточно
Other forum [Profile] [PM]
Display posts from previous:    
Reply to topic

The time now is: Today 07:52

All times are GMT + 3 Hours



You cannot post new topics in this forum
You cannot reply to topics in this forum
You cannot edit your posts in this forum
You cannot delete your posts in this forum
You cannot vote in polls in this forum
You cannot attach files in this forum
You cannot download files in this forum