Today is a free download without charge Download

Золотая каска / Casque d'Or (Жак Бекер / Jacques Becker) [1952, Франция, драма, мелодрама, криминал, BDRip 720p] DVO + AVO (Янкелевич) + Sub (Eng, Fre, Ger) + Original Fre

Reply to topic
 
Author
Message

Omen ®

Longevity: 8 years 5 months

Posts: 181087

Торрент-статистика

Post 17-May-2013 17:49

[Quote]

Золотая каска / Casque d'Or
Страна: Франция
Жанр: драма, мелодрама, криминал
Год выпуска: 1952
Продолжительность: 01:38:23
Перевод: Профессиональный (двухголосый закадровый) к/с Кипарис
Перевод: Авторский (одноголосый закадровый) Р. Янкелевич
Cубтитры: английские, французские, немецкие
Оригинальная аудиодорожка: французский-Режиссер: Жак Бекер / Jacques Becker
В ролях: Симона Синьоре, Серж Реджани, Клод Дофен, Жаклин Дан, Поль Барж, Клод Кастен, Одетт Баранси, Фернан Триньоль, Жаклин Кантерель, Раймон Бюссьер, Даниэль Мендай, Доминик Даврэ, Ивонн Има, Поль Азаис, Жан Кларье, Тони Кортеджани, Эмиль Женевуа, Гастон Модо, Виллиам Сабатье, Сюзанн Грэй, Иетт Люка, Жаклин Марбо, Пакеретт, Леон Бари, Жан Деграв, Пьер Лепру, Ролан Лезафр, Леон Полеон, Жюльен Маффре, Марсель Мельрак, Рене Паскаль, Рафаэль Паторни, Марсель Руз, Роже Венсан, Пьер Гута
Описание: Сюжет фильма основан на реальной истории, найденной режиссером Жаком Беккером в судебных отчетах за тот период, к которому относится повествование.
Ранее судимый герой Жорж Манда с темным прошлым, ныне честный плотник, влюбляется в женщину-босса местной банды. Да и она к нему неравнодушна. Однако, выяснение отношений и убийство вновь ставят его по другую сторону закона. Войти в одну реку дважды не получается и герой предпочитает отомстить обидчикам и уйти в мир иной с гильотины.
IMDb || КиноПоиск-Тип релиза: BDRip 720p [EbP]
Контейнер: MKV
Видео: H.264/AVC, 956x720 at 24.000 fps, ~11200 kbps
Аудио#1: Russian: 48 kHz, AC3, 2/0 (L,R) ch, 192 kbps |Двухголосый закадровый, к/с Кипарис|
Аудио#2: Russian: 48 kHz, AC3, 2/0 (L,R) ch, 192 kbps |Авторский одноголосый закадровый, Р.Янкелевич|
Аудио#3: French: 48 kHz, FLAC 2.0, 208 kbps
Формат субтитров: softsub (SRT)
Сэмпл

MediaInfo

Format : Matroska
Format version : Version 2
File size : 8.26 GiB
Duration : 1h 38mn
Overall bit rate mode : Variable
Overall bit rate : 12.0 Mbps
Encoded date : UTC 2013-05-11 05:54:15
Writing application : mkvmerge v5.0.1 ('Es ist Sommer') built on Nov 6 2011 16:23:40
Writing library : libebml v1.2.2 + libmatroska v1.3.0
Video
ID : 1
Format : AVC
Format/Info : Advanced Video Codec
Format profile : [email protected]
Format settings, CABAC : Yes
Format settings, ReFrames : 12 frames
Codec ID : V_MPEG4/ISO/AVC
Duration : 1h 38mn
Width : 956 pixels
Height : 720 pixels
Display aspect ratio : 4:3
Frame rate : 24.000 fps
Color space : YUV
Chroma subsampling : 4:2:0
Bit depth : 8 bits
Scan type : Progressive
Writing library : x264 core 130 r2273 b3065e6
Encoding settings : cabac=1 / ref=12 / deblock=1:-3:-3 / analyse=0x3:0x113 / me=tesa / subme=9 / psy=1 / psy_rd=1.05:0.00 / mixed_ref=1 / me_range=16 / chroma_me=1 / trellis=2 / 8x8dct=1 / cqm=0 / deadzone=21,11 / fast_pskip=0 / chroma_qp_offset=-2 / threads=12 / lookahead_threads=2 / sliced_threads=0 / nr=0 / decimate=0 / interlaced=0 / bluray_compat=0 / constrained_intra=0 / bframes=8 / b_pyramid=2 / b_adapt=2 / b_bias=0 / direct=3 / weightb=1 / open_gop=0 / weightp=2 / keyint=250 / keyint_min=24 / scenecut=40 / intra_refresh=0 / rc=crf / mbtree=0 / crf=16.0 / qcomp=0.50 / qpmin=0 / qpmax=69 / qpstep=4 / ip_ratio=1.40 / pb_ratio=1.30 / aq=1:0.60
Language : English
Default : Yes
Forced : No
Matrix coefficients : BT.709-5, BT.1361, IEC 61966-2-4 709, SMPTE RP177
Audio #1
ID : 2
Format : AC-3
Format/Info : Audio Coding 3
Format profile : Dolby Digital
Mode extension : CM (complete main)
Codec ID : A_AC3
Duration : 1h 38mn
Bit rate mode : Constant
Bit rate : 192 Kbps
Channel(s) : 2 channels
Channel positions : Front: L R
Sampling rate : 48.0 KHz
Bit depth : 16 bits
Compression mode : Lossy
Stream size : 135 MiB (2%)
Title : dvo
Language : Russian
Default : Yes
Forced : No
Audio #2
ID : 3
Format : AC-3
Format/Info : Audio Coding 3
Format profile : Dolby Digital
Mode extension : CM (complete main)
Codec ID : A_AC3
Duration : 1h 38mn
Bit rate mode : Constant
Bit rate : 192 Kbps
Channel(s) : 2 channels
Channel positions : Front: L R
Sampling rate : 48.0 KHz
Bit depth : 16 bits
Compression mode : Lossy
Stream size : 135 MiB (2%)
Title : avo
Language : Russian
Default : No
Forced : No
Audio #3
ID : 4
Format : FLAC
Format/Info : Free Lossless Audio Codec
Codec ID : A_FLAC
Duration : 1h 38mn
Bit rate mode : Variable
Channel(s) : 2 channels
Sampling rate : 48.0 KHz
Bit depth : 16 bits
Writing library : libFLAC 1.2.1 (UTC 2007-09-17)
Language : French
Default : No
Forced : No
Text #1
ID : 5
Format : UTF-8
Codec ID : S_TEXT/UTF8
Codec ID/Info : UTF-8 Plain Text
Title : English
Language : English
Default : No
Forced : No
Text #2
ID : 6
Format : UTF-8
Codec ID : S_TEXT/UTF8
Codec ID/Info : UTF-8 Plain Text
Title : French
Language : French
Default : No
Forced : No
Text #3
ID : 7
Format : UTF-8
Codec ID : S_TEXT/UTF8
Codec ID/Info : UTF-8 Plain Text
Title : German
Language : German
Default : No
Forced : No
Menu
00:00:00.000 : en:00:00:00.000
00:07:18.958 : en:00:07:18.958
00:16:26.333 : en:00:16:26.333
00:25:45.083 : en:00:25:45.083
00:33:10.500 : en:00:33:10.500
00:41:51.125 : en:00:41:51.125
00:48:00.625 : en:00:48:00.625
00:55:00.083 : en:00:55:00.083
01:03:55.750 : en:01:03:55.750
01:11:50.125 : en:01:11:50.125
01:20:19.208 : en:01:20:19.208
01:30:17.542 : en:01:30:17.542

Скриншоты

EbP vs Source
Other forum [Profile] [PM]
Similar theme
Forum Topic Author Torrent Replies Last Post
./templates/default/images/folder_dl.gif FPS (1st Person) Xenus 2: Белое золото / White Gold: War in Paradise (Руссобит-М) (RUS) [Repack] от R.G. NoLimits-Team GameS nsa1977
1 | 0

0 | 1803

24

2011-05-15 06:47
nsa1977 Latest
./templates/default/images/folder_dl.gif FPS (1st Person) Serious Sam Gold Edition / Крутой Сэм Золотое Издание (2001-2010) (1С-СофтКлаб / Новый Диск) (ENG+RUS) [RePack] от SeRaph1 Baracuda
1 | 0

2 | 5972

45

2012-05-30 20:01
Diavol Latest
Display posts from previous:    
Reply to topic

The time now is: Today 20:27

All times are GMT + 3 Hours



You cannot post new topics in this forum
You cannot reply to topics in this forum
You cannot edit your posts in this forum
You cannot delete your posts in this forum
You cannot vote in polls in this forum
You cannot attach files in this forum
You cannot download files in this forum