Today is a free download without charge Download

Avril Lavigne - Girlfriend (VH1HD) [2007, Pop punk, power pop, HDTV 1080i]

Reply to topic
 
Author
Message

Omen ®

Longevity: 8 years 3 months

Posts: 181087

Торрент-статистика

Post 17-May-2013 17:49

[Quote]

Avril Lavigne - Girlfriend (VH1HD)
Жанр: Pop punk, power pop
Продолжительность: 03:46
Год выпуска: 2007
Качество: HDTV 1080i
Контейнер: TS
Видео: AVC 1920x1080 16:9 8541 Kbps 29.970 fps
Аудио: AC3 384 kbps 2 channels 48.0 KHz

Отчёт MediaInfo

GeneralID : 1 (0x1)Complete name : D:\Avril Lavigne - Girlfriend.tsFormat : MPEG-TSFile size : 253 MiBDuration : 3mn 46sOverall bit rate : 9 393 Kbps
VideoID : 5408 (0x1520)Menu ID : 1 (0x1)Format : AVCFormat/Info : Advanced Video CodecFormat profile : [email protected] settings, CABAC : YesFormat settings, ReFrames : 2 framesCodec ID : 27Duration : 3mn 46sBit rate : 8 541 KbpsWidth : 1 920 pixelsHeight : 1 080 pixelsDisplay aspect ratio : 16:9Frame rate : 29.970 fpsColor space : YUVChroma subsampling : 4:2:0Bit depth : 8 bitsScan type : MBAFFBits/(Pixel*Frame) : 0.137Stream size : 230 MiB (91%)Color primaries : BT.709-5, BT.1361, IEC 61966-2-4, SMPTE RP177Transfer characteristics : BT.709-5, BT.1361Matrix coefficients : BT.709-5, BT.1361, IEC 61966-2-4 709, SMPTE RP177
AudioID : 5410 (0x1522)Menu ID : 1 (0x1)Format : AC-3Format/Info : Audio Coding 3Mode extension : CM (complete main)Codec ID : 129Duration : 3mn 46sBit rate mode : ConstantBit rate : 384 KbpsChannel(s) : 2 channelsChannel positions : Front: L RSampling rate : 48.0 KHzBit depth : 16 bitsCompression mode : LossyStream size : 10.4 MiB (4%)Language : English

Скриншоты

Other forum [Profile] [PM]
Display posts from previous:    
Reply to topic

The time now is: Today 02:57

All times are GMT + 3 Hours



You cannot post new topics in this forum
You cannot reply to topics in this forum
You cannot edit your posts in this forum
You cannot delete your posts in this forum
You cannot vote in polls in this forum
You cannot attach files in this forum
You cannot download files in this forum