Today is a free download without charge Download

Ку! Кин-дза-дза (Георгий Данелия, Татьяна Ильина) [2013.., Мультфильм, фантастика, комедия, DVD9]

Reply to topic
 
Author
Message

Meshanik ®

Gender:

Longevity: 8 years 4 months

Posts: 3866

Location: Los Angeles

Торрент-статистика

Post 17-May-2013 10:06

[Quote]

Ку! Кин-дза-дза- Русское название: Ку! Кин-дза-дза
Год выпуска: 2013
Жанр: Мультфильм, Фантастика, Комедия
Продолжительность: 01:32:30
Страна: Россия
Студия: Первый канал, Кинокомпания CTB, Ритм, Югра-фильм
Перевод: не требуется
Язык субтитров: английские
Вид субтитров: Вшитые-Описание:
Начинающий диджей Толик и всемирно известный виолончелист Владимир Чижов встречают на шумной московской улице босого человека. Нажав на кнопку странной машинки, герои перемещаются на пустынную планету Плюк. Анимационный ремейк любимого всеми фильма «Кин-дза-дза!» не менее увлекательно и смешно, чем оригинал, рассказывает о приключениях Толика и дяди Вовы. В этом мире песка жители делятся на две категории — пацаков и чатлан, простая спичка обладает невероятной ценностью, а людей встречают и провожают по цвету штанов.-Режиссер: Георгий Данелия, Татьяна Ильина
Продюсер: Сергей Сельянов, Константин Эрнст, Леонид Ярмольник
В ролях: Николай Губенко, Иван Цехмистренко, Андрей Леонов, Алексей Колган, Александр Адабашьян, Георгий Данелия, Игорь Кваша, Вахтанг Кикабидзе, Галина Данелия-Юркова, Полина Кутепова-Мировая премьера: 11 апреля 2013
Российская премьера: 11 апреля 2013, «Наше Кино» 3D
Дата выхода DVD: 14 мая 2013, «Lizard Cinema Trade»
Дата выхода Blu-Ray: 14 мая 2013, «Lizard Cinema Trade»-
Возраст 6+ - зрителям, достигшим 6 лет-Качество видео: DVD9
Видеокодек: MPEG-2
Битрейт видео: ~ 5 616 Kbps
Размер кадра: PAL 16:9, [email protected]х576
Аудио 1: Dolby AC3, 6 ch, 448 Кбит/сек, 48,0 КГц (русский)
Аудио 2: Dolby AC3, 2 ch, 448 Кбит/сек, 48,0 КГц (русский)
Аудио 3: DTS, 6 ch, 768 Кбит/сек, 48,0 КГц (русский)
Сэмпл: Ссылка

DVDinfo

Title: Ku! Kin-dza-dza
Size: 5.27 Gb ( 5 522 546,00 KBytes ) - DVD-9
Enabled regions: 1, 2, 3, 4, 5, 6, 7, 8
VTS_01 :
Play Length: 00:00:25+{00:00:25}+{00:00:25}
Video: PAL 4:3 (720x576) VBR
Audio:
  • Russian (Dolby AC3, 6 ch)
  • English (Dolby AC3, 6 ch)
  • English (Dolby AC3, 6 ch)
    VTS_02 :
    Play Length: 01:32:30
    Video: PAL 16:9 (720x576) VBR, Auto Pan&Scan, Auto Letterboxed
    Audio:
  • Russian (Dolby AC3, 6 ch)
  • Russian (Dolby AC3, 2 ch)
  • Russian (DTS, 5 ch)
    Subtitles:
  • English
    * Menus Information *
    VIDEO_TS Menu
    Video:
  • PAL 4:3 (720x576) VBR
    English Language Unit :
  • Title Menu
    VTS_01 Menu
    Video:
  • PAL 4:3 (720x576) VBR
    Audio:
  • Not specified (Dolby AC3, 2 ch)
    English Language Unit :
  • Root Menu
  • Chapter (PTT) Menu
    VTS_02 Menu
    Video:
  • PAL 4:3 (720x576) VBR
    English Language Unit :
  • Root Menu
  • Subpicture Menu
  • Audio Menu
  • Chapter (PTT) Menu

Медиаинфо

Format : MPEG-PS
File size : 1 024 MiB
Duration : 19mn 18s
Overall bit rate mode : Variable
Overall bit rate : 7 414 Kbps
Video
ID : 224 (0xE0)
Format : MPEG Video
Format version : Version 2
Format profile : [email protected]
Format settings, BVOP : Yes
Format settings, Matrix : Custom
Format settings, GOP : M=3, N=12
Duration : 19mn 18s
Bit rate mode : Variable
Bit rate : 5 616 Kbps
Maximum bit rate : 8 000 Kbps
Width : 720 pixels
Height : 576 pixels
Display aspect ratio : 16:9
Frame rate : 25.000 fps
Standard : PAL
Color space : YUV
Chroma subsampling : 4:2:0
Bit depth : 8 bits
Scan type : Progressive
Compression mode : Lossy
Bits/(Pixel*Frame) : 0.542
Stream size : 775 MiB (76%)
Audio #1
ID : 189 (0xBD)-128 (0x80)
Format : AC-3
Format/Info : Audio Coding 3
Mode extension : CM (complete main)
Format settings, Endianness : Big
Muxing mode : DVD-Video
Duration : 19mn 18s
Bit rate mode : Constant
Bit rate : 448 Kbps
Channel(s) : 6 channels
Channel positions : Front: L C R, Side: L R, LFE
Sampling rate : 48.0 KHz
Bit depth : 16 bits
Compression mode : Lossy
Delay relative to video : -656ms
Stream size : 61.9 MiB (6%)
Audio #2
ID : 189 (0xBD)-129 (0x81)
Format : AC-3
Format/Info : Audio Coding 3
Mode extension : CM (complete main)
Format settings, Endianness : Big
Muxing mode : DVD-Video
Duration : 19mn 18s
Bit rate mode : Constant
Bit rate : 448 Kbps
Channel(s) : 2 channels
Channel positions : Front: L R
Sampling rate : 48.0 KHz
Bit depth : 16 bits
Compression mode : Lossy
Delay relative to video : -656ms
Stream size : 61.9 MiB (6%)
Audio #3
ID : 189 (0xBD)-138 (0x8A)
Format : DTS
Format/Info : Digital Theater Systems
Muxing mode : DVD-Video
Duration : 19mn 18s
Bit rate mode : Constant
Bit rate : 755 Kbps
Channel(s) : 6 channels
Channel positions : Front: L C R, Side: L R, LFE
Sampling rate : 48.0 KHz
Bit depth : 24 bits
Compression mode : Lossy
Delay relative to video : -677ms
Stream size : 104 MiB (10%)
Text
ID : 189 (0xBD)-32 (0x20)
Format : RLE
Format/Info : Run-length encoding
Muxing mode : DVD-Video
Menu

Сканы обложки и диска

   

Скриншоты меню

     
Скриншоты:
         
         
Other forum [Profile] [PM]
Display posts from previous:    
Reply to topic

The time now is: Today 03:45

All times are GMT + 3 Hours



You cannot post new topics in this forum
You cannot reply to topics in this forum
You cannot edit your posts in this forum
You cannot delete your posts in this forum
You cannot vote in polls in this forum
You cannot attach files in this forum
You cannot download files in this forum