Today is a free download without charge Download

Ку! Кин-дза-дза (Георгий Данелия, Татьяна Ильина) [2013.., Мультфильм, фантастика, комедия, DVD5]

Reply to topic
 
Author
Message

Meshanik ®

Gender:

Longevity: 8 years 5 months

Posts: 3866

Location: Los Angeles

Торрент-статистика

Post 17-May-2013 09:59

[Quote]

Ку! Кин-дза-дза- Русское название: Ку! Кин-дза-дза
Год выпуска: 2013
Жанр: Мультфильм, фантастика, комедия
Продолжительность: 01:32:30
Производство: Россия / Первый канал, Кинокомпания CTB, Ритм, Югра-фильм
Язык субтитров: Русский
Язык субтитров: Английские
Вид субтитров: Вшитые отключаемые-Описание:
Начинающий диджей Толик и всемирно известный виолончелист Владимир Чижов встречают на шумной московской улице босого человека. Нажав на кнопку странной машинки, герои перемещаются на пустынную планету Плюк. Анимационный ремейк любимого всеми фильма «Кин-дза-дза!» не менее увлекательно и смешно, чем оригинал, рассказывает о приключениях Толика и дяди Вовы. В этом мире песка жители делятся на две категории — пацаков и чатлан, простая спичка обладает невероятной ценностью, а людей встречают и провожают по цвету штанов.-Режиссер: Георгий Данелия, Татьяна Ильина
Продюсер: Сергей Сельянов, Константин Эрнст, Леонид Ярмольник
В ролях: Николай Губенко, Иван Цехмистренко, Андрей Леонов, Алексей Колган, Александр Адабашьян, Георгий Данелия, Игорь Кваша, Вахтанг Кикабидзе, Галина Данелия-Юркова, Полина Кутепова-Дата мировой премьеры: 11 апреля 2013
Дата российской премьеры: 11 апреля 2013, «Наше Кино» 3D
Дата выхода DVD: 14 мая 2013, «Lizard Cinema Trade»
- -Качество видео: DVD5
Видеокодек: MPEG-2, [email protected]х576 (PAL 16:9), ~5983 Кбит/сек
Аудио : AC3 5.1, 448 Кбит/сек [русский]

DVDInfo:

Title: Ку! Кин-дза-дза (2013) DVD5
Size: 4.37 Gb ( 4 583 622,00 KBytes ) - DVD-5
Enabled regions: 1, 2, 3, 4, 5, 6, 7, 8
VTS_01 :
Play Length: 00:00:00+00:00:00+00:00:00
Video: PAL 4:3 (720x576) VBR
Audio:
  • Russian (Dolby AC3, 6 ch)
  • English (Dolby AC3, 6 ch)
  • English (Dolby AC3, 6 ch)
    VTS_02 :
    Play Length: 01:32:30
    Video: PAL 16:9 (720x576) VBR, Auto Pan&Scan, Auto Letterboxed
    Audio:
  • Russian (Dolby AC3, 6 ch)
    Subtitles:
  • English
    * Menus Information *
    VIDEO_TS Menu
    Video:
  • NTSC 4:3 (720x480) VBR
  • Auto Pan&Scan, Auto Letterboxed
    English Language Unit :
  • Title Menu
    VTS_01 Menu
    Video:
  • PAL 4:3 (720x576) VBR
    Audio:
  • Not specified (Dolby AC3, 2 ch)
    English Language Unit :
  • Root Menu
  • Chapter (PTT) Menu
    VTS_02 Menu
    Video:
  • PAL 4:3 (720x576) VBR
    English Language Unit :
  • Root Menu
  • Subpicture Menu
  • Audio Menu
  • Chapter (PTT) Menu

MediaInfo:

Общее
Полное имя : D:\ФИЛЬМЫ\Ку! Кин-дза-дза (2013) DVD5\VIDEO_TS\VTS_02_1.VOB
Формат : MPEG-PS
Размер файла : 1024 Мбайт
Продолжительность : 21 м.
Режим общего битрейта : Переменный
Общий поток : 6561 Кбит/сек
Видео
Идентификатор : 224 (0xE0)
Формат : MPEG Video
Версия формата : Version 2
Профиль формата : [email protected]
Параметр BVOP формата : Да
Параметр матрицы формата : Выборочная
Параметр GOP формата : Variable
Продолжительность : 21 м.
Вид битрейта : Переменный
Битрейт : 5983 Кбит/сек
Максимальный битрейт : 8000 Кбит/сек
Ширина : 720 пикселей
Высота : 576 пикселей
Соотношение сторон : 16:9
Частота кадров : 25,000 кадров/сек
Стандарт вещания : PAL
Цветовое пространство : YUV
Субдискретизация насыщенности : 4:2:0
Битовая глубина : 8 бит
Тип развёртки : Прогрессивная
Метод сжатия : С потерями
Бит/(Пиксели*Кадры) : 0.577
TimeCode_FirstFrame : 00:00:00:00
TimeCode_Source : Group of pictures header
Размер потока : 934 Мбайт (91%)
Аудио
Идентификатор : 189 (0xBD)-128 (0x80)
Формат : AC-3
Формат/Информация : Audio Coding 3
Расширение режима : CM (complete main)
Параметр Endianness формата : Big
Режим смешивания : DVD-Video
Продолжительность : 21 м.
Вид битрейта : Постоянный
Битрейт : 448 Кбит/сек
Каналы : 6 каналов
Расположение каналов : Front: L C R, Side: L R, LFE
Частота : 48,0 КГц
Битовая глубина : 16 бит
Метод сжатия : С потерями
Размер потока : 69,9 Мбайт (7%)
Текст
Идентификатор : 189 (0xBD)-32 (0x20)
Формат : RLE
Формат/Информация : Run-length encoding
Режим смешивания : DVD-Video
Продолжительность : 21 м.
Задержка видео : 440 мс.
Меню

Дополнительная информация:

Видео не сжималось! Удалена вся реклама, пред. надписи и два лишних звука, команды диска не тронуты, в анимированном меню удалена кнопка настроек (но не затёрта) и само меню настроек, английские субтитры можно включить пультом или программно, использована программа DVDRemake.

Скриншоты меню:

   
-Скриншоты:-          -
Other forum [Profile] [PM]
Display posts from previous:    
Reply to topic

The time now is: Today 19:38

All times are GMT + 3 Hours



You cannot post new topics in this forum
You cannot reply to topics in this forum
You cannot edit your posts in this forum
You cannot delete your posts in this forum
You cannot vote in polls in this forum
You cannot attach files in this forum
You cannot download files in this forum