Today is a free download without charge Download

Ку! Кин-дза-дза (Георгий Данелия, Татьяна Ильина) [2013.., Мультфильм, фантастика, комедия, BDRemux 1080p]

Reply to topic
 
Author
Message

Meshanik ®

Gender:

Longevity: 8 years 6 months

Posts: 3866

Location: Los Angeles

Торрент-статистика

Post 17-May-2013 09:50

[Quote]

Ку! Кин-дза-дза- Оригинальное название: Ку! Кин-дза-дза
Производство: Россия / Кинокомпания CTB
Год выпуска: 2013
Жанр: Мультфильм, фантастика, комедия
Продолжительность: 01:36:27
Вид субтитров: Вшитые отключаемые
Язык субтитров: Английский-Режиссер: Георгий Данелия, Татьяна Ильина
Продюсер: Сергей Сельянов, Константин Эрнст, Леонид Ярмольник
В ролях: Николай Губенко, Иван Цехмистренко, Андрей Леонов, Алексей Колган, Александр Адабашьян, Георгий Данелия, Игорь Кваша, Вахтанг Кикабидзе, Галина Данелия-Юркова, Полина Кутепова-Описание фильма:
Начинающий диджей Толик и всемирно известный виолончелист Владимир Чижов встречают на шумной московской улице босого человека. Нажав на кнопку странной машинки, герои перемещаются на пустынную планету Плюк. Анимационный ремейк любимого всеми фильма «Кин-дза-дза!» не менее увлекательно и смешно, чем оригинал, рассказывает о приключениях Толика и дяди Вовы. В этом мире песка жители делятся на две категории — пацаков и чатлан, простая спичка обладает невероятной ценностью, а людей встречают и провожают по цвету штанов.-Дата мировой премьеры: 11 апреля 2013
Дата российской премьеры: 11 апреля 2013, «Наше Кино»
Дата выхода DVD релиза: 14 мая 2013, «Lizard Cinema Trade»-
Возраст 6+ - зрителям, достигшим 6 лет-Качество видео: BDRemux
Видео: MPEG4_AVC/H.264, 1920x1080, ~ 20142 kbps, 23.976 fps
Аудио 1: DTS-HD MA 5.1, 2210 kbps, 48 kHz [Русский]
Аудио 2: AC3 5.1, 640 kbps, 48 kHz [Русский]-

MediaInfo...

Полное имя : D:\Ку!Кин-дза-дза.(2013).BDRemux.[1080p].mkv
Формат : Matroska
Версия формата : Version 2
Размер файла : 15,5 Гбайт
Продолжительность : 1 ч. 36 м.
Режим общего битрейта : Переменный
Общий поток : 23,0 Мбит/сек
Название фильма : Ку!Кин-дза-дза - Lelya_K for /*spam*/
Дата кодирования : UTC 2013-05-14 19:46:11
Программа кодирования : mkvmerge v5.7.0 ('The Whirlwind') built on Aug 7 2012 14:11:40
Библиотека кодирования : libebml v1.2.3 + libmatroska v1.3.0
Видео
Идентификатор : 1
Формат : AVC
Формат/Информация : Advanced Video Codec
Профиль формата : [url=mailto:[email protected]][email protected][/url]
Параметр CABAC формата : Да
Параметр ReFrames формата : 4 кадра
Параметр GOP формата : M=3, N=18
Идентификатор кодека : V_MPEG4/ISO/AVC
Продолжительность : 1 ч. 36 м.
Вид битрейта : Переменный
Битрейт : 20,4 Мбит/сек
Максимальный битрейт : 38,0 Мбит/сек
Ширина : 1920 пикселей
Высота : 1080 пикселей
Соотношение сторон : 16:9
Режим частоты кадров : Постоянный
Частота кадров : 23,976 кадра/сек
Стандарт вещания : NTSC
Цветовое пространство : YUV
Субдискретизация насыщенности : 4:2:0
Битовая глубина : 8 бит
Тип развёртки : Прогрессивная
Бит/(Пиксели*Кадры) : 0.410
Размер потока : 13,7 Гбайт (88%)
Заголовок : Ку!Кин-дза-дза.(2013).BDRemux.[1080p]
Язык : Russian
Default : Да
Forced : Нет
Основные цвета : BT.709
Характеристики трансфера : BT.709
Коэффициенты матрицы : BT.709
Аудио #1
Идентификатор : 2
Формат : DTS
Формат/Информация : Digital Theater Systems
Профиль формата : MA / Core
Идентификатор кодека : A_DTS
Продолжительность : 1 ч. 36 м.
Вид битрейта : Переменный
Битрейт : 1561 Кбит/сек / 1510 Кбит/сек
Каналы : 6 каналов
Расположение каналов : Front: L C R, Side: L R, LFE
Частота : 48,0 КГц
Битовая глубина : 16 бит
Метод сжатия : Без потерь / Lossy
Заголовок : DTS-HD MA 5.1 / 2210 kbps
Язык : Russian
Default : Да
Forced : Нет
Аудио #2
Идентификатор : 3
Формат : AC-3
Формат/Информация : Audio Coding 3
Расширение режима : CM (complete main)
Параметр Endianness формата : Big
Идентификатор кодека : A_AC3
Продолжительность : 1 ч. 36 м.
Вид битрейта : Постоянный
Битрейт : 640 Кбит/сек
Каналы : 6 каналов
Расположение каналов : Front: L C R, Side: L R, LFE
Частота : 48,0 КГц
Битовая глубина : 16 бит
Метод сжатия : С потерями
Размер потока : 442 Мбайт (3%)
Заголовок : AC3 5.1 / 640 kbps
Язык : Russian
Default : Нет
Forced : Нет
Текст
Идентификатор : 4
Формат : PGS
Идентификатор кодека : S_HDMV/PGS
Идентификатор кодека/Информация : The same subtitle format used on BDs/HD-DVDs
Язык : English
Default : Нет
Forced : Нет
Меню
00:00:00.000 : ru:Chapter 00
00:06:27.678 : ru:Chapter 01
00:11:31.273 : ru:Chapter 02
00:15:58.540 : ru:Chapter 03
00:20:26.016 : ru:Chapter 04
00:27:15.091 : ru:Chapter 05
00:32:28.655 : ru:Chapter 06
00:39:43.672 : ru:Chapter 07
00:48:43.879 : ru:Chapter 08
00:56:26.132 : ru:Chapter 09
01:00:42.639 : ru:Chapter 10
01:07:32.423 : ru:Chapter 11
01:15:52.381 : ru:Chapter 12
01:21:46.276 : ru:Chapter 13
01:27:33.998 : ru:Chapter 14
01:33:13.754 : ru:Chapter 15
Скриншоты:
       
       
Other forum [Profile] [PM]

Dracula

Longevity: 7 years 1 month

Posts: 11391

Торрент-статистика

Post 17-May-2013 10:53 (after 1 hour 3 minutes)

Топик был перенесен из форума Мультфильмы (HD) в форум Мультфильмы

Причина переноса: Для качества Blu-ray, Blu-ray remux, BDremux есть отдельная тема.
RUGUI
 
Display posts from previous:    
Reply to topic

The time now is: Today 22:06

All times are GMT + 3 Hours



You cannot post new topics in this forum
You cannot reply to topics in this forum
You cannot edit your posts in this forum
You cannot delete your posts in this forum
You cannot vote in polls in this forum
You cannot attach files in this forum
You cannot download files in this forum