Today is a free download without charge Download

Человек, который смеется / L'homme qui rit (Жан-Пьер Амери) [2012.., Драма, DVD5]

Reply to topic
 
Author
Message

Meshanik ®

Gender:

Longevity: 8 years 10 months

Posts: 3866

Location: Los Angeles

Торрент-статистика

Post 17-May-2013 07:36

[Quote]

Человек, который смеется / L'homme qui rit- Русское название: Человек, который смеется
Оригинальное название: L'homme qui rit
Год выпуска: 2012
Производство: Франция, Чехия
Жанр: Драма
Перевод: Многоголосый закадровый (Лицензия)
Вид субтитров: Вшитые отключаемые
Язык субтитров: Русский
Режиссер: Жан-Пьер Амери
Актеры: Жерар Депардье, Марк-Андре Гронден, Эмманюэль Сенье, Криста Тере, Арбен Байрактарай, Сванн Арло, Джозеф Брадна, Маркета Хрубешова, Владимир Яворски, Серж Мерлен
Описание фильма:
Двое обездоленных детей — Дея и Гуинплен, которых приютил и воспитал бродячий скоморох Урсус, выросли чистыми и благородными людьми. На лице Гуинплена, обезображенного в раннем детстве, застыла гримаса вечного смеха, но смеется только его лицо, а не он сам. У женщин он вызывает отвращение, но для слепой Деи нет никого прекраснее Гуинплена…
Дата мировой премьеры: 8 сентября 2012
Дата выхода DVD релиза: 21 мая 2013, «Парадиз / Активижен»

Продолжительность: 01:29:45
Качество видео: DVD5
Видеокодек: MPEG-2
Битрейт видео: ~5913 kbps
Размер кадра: PAL 16:9 ([email protected]х576)
Аудио 1: AC3, 6 ch, 384 kbps (Многоголосый, Русский)
Аудио 2: AC3, 2 ch, 192 kbps (Многоголосый, Русский)
Аудио 3: AC3, 6 ch, 384 kbps (Оригинал, Французский)
Дополнительно: Скоро на DVD

MediaInfo:

Общее
Полное имя : Chelovek.kotoryj.smejotsja.2012.DVD5\VIDEO_TS\VTS_01_1.VOB
Формат : MPEG-PS
Размер файла : 1024 Мбайт
Продолжительность : 20 м.
Режим общего битрейта : Переменный
Общий поток : 7013 Кбит/сек
Видео
Идентификатор : 224 (0xE0)
Формат : MPEG Video
Версия формата : Version 2
Профиль формата : [email protected]
Параметр BVOP формата : Да
Параметр матрицы формата : Выборочная
Продолжительность : 20 м.
Вид битрейта : Переменный
Битрейт : 5913 Кбит/сек
Максимальный битрейт : 9000 Кбит/сек
Ширина : 720 пикселей
Высота : 576 пикселей
Соотношение сторон : 16:9
Частота кадров : 25,000 кадров/сек
Стандарт вещания : PAL
Цветовое пространство : YUV
Субдискретизация насыщенности : 4:2:0
Битовая глубина : 8 бит
Тип развёртки : Прогрессивная
Порядок развёртки : Верхнее поле первое
Метод сжатия : С потерями
Бит/(Пиксели*Кадры) : 0.570
Размер потока : 863 Мбайт (84%)
Аудио #1
Идентификатор : 189 (0xBD)-128 (0x80)
Формат : AC-3
Формат/Информация : Audio Coding 3
Расширение режима : CM (complete main)
Режим смешивания : DVD-Video
Продолжительность : 20 м.
Вид битрейта : Постоянный
Битрейт : 384 Кбит/сек
Каналы : 6 каналов
Расположение каналов : Front: L C R, Side: L R, LFE
Частота : 48,0 КГц
Битовая глубина : 16 бит
Метод сжатия : С потерями
Размер потока : 56,0 Мбайт (5%)
Аудио #2
Идентификатор : 189 (0xBD)-129 (0x81)
Формат : AC-3
Формат/Информация : Audio Coding 3
Расширение режима : CM (complete main)
Режим смешивания : DVD-Video
Продолжительность : 20 м.
Вид битрейта : Постоянный
Битрейт : 192 Кбит/сек
Каналы : 2 канала
Расположение каналов : Front: L R
Частота : 48,0 КГц
Битовая глубина : 16 бит
Метод сжатия : С потерями
Размер потока : 28,0 Мбайт (3%)
Аудио #3
Идентификатор : 189 (0xBD)-130 (0x82)
Формат : AC-3
Формат/Информация : Audio Coding 3
Расширение режима : CM (complete main)
Режим смешивания : DVD-Video
Продолжительность : 20 м.
Вид битрейта : Постоянный
Битрейт : 384 Кбит/сек
Каналы : 6 каналов
Расположение каналов : Front: L C R, Side: L R, LFE
Частота : 48,0 КГц
Битовая глубина : 16 бит
Метод сжатия : С потерями
Размер потока : 56,0 Мбайт (5%)
Меню

DVDInfo:

Title: Chelovek.kotoryj.smejotsja.2012.DVD5
Size: 4.32 Gb ( 4 530 494,00 KBytes ) - DVD-5
Enabled regions: 1, 2, 3, 4, 5, 6, 7, 8
VTS_01 :
Play Length: 01:29:45
Video: PAL 16:9 (720x576) VBR, Auto Letterboxed
Audio:
  • Russian (Dolby AC3, 6 ch)
  • Russian (Dolby AC3, 2 ch)
  • Francais (Dolby AC3, 6 ch)
    Subtitles:
  • Not specified
    VTS_02 :
    Play Length: 00:09:43
    Video: PAL 16:9 (720x576) VBR, Auto Letterboxed
    Audio:
  • Not specified (Dolby AC3, 2 ch)
    * Menus Information *
    VIDEO_TS Menu
    Video:
  • PAL 16:9 (720x576) VBR
  • Auto Pan&Scan
    Audio:
  • Not specified (Dolby AC3, 2 ch)
    Russian Language Unit :
  • Title Menu
    VTS_01 Menu
    Video:
  • PAL 16:9 (720x576) VBR
  • Auto Pan&Scan
    Audio:
  • Not specified (Dolby AC3, 2 ch)
    Russian Language Unit :
  • Root Menu
  • Audio Menu
  • Chapter (PTT) Menu
    VTS_02 Menu
    Video:
  • NTSC 4:3 (720x480) VBR
  • Auto Pan&Scan, Auto Letterboxed
    Russian Language Unit :
  • Root Menu

Меню DVD:

       
Скриншоты:
       
       
Other forum [Profile] [PM]
Display posts from previous:    
Reply to topic

The time now is: Today 09:53

All times are GMT + 3 Hours



You cannot post new topics in this forum
You cannot reply to topics in this forum
You cannot edit your posts in this forum
You cannot delete your posts in this forum
You cannot vote in polls in this forum
You cannot attach files in this forum
You cannot download files in this forum