Today is a free download without charge Download

Мамма MIA! / Mamma Mia! (Филлида Ллойд) [2008 г., мюзикл, мелодрама, комедия/BDRip 1080p.]

Reply to topic
 
Author
Message

sassad ®

Gender:

Longevity: 8 years 7 months

Posts: 1214

Location: Галич

Торрент-статистика

Post 31-Jul-2011 16:34

[Quote]

Мамма MIA! / Mamma Mia!--
Год выпуска: 2008
Страна: США, Германия, Великобритания
Жанр: мюзикл, мелодрама, комедия
Продолжительность: 108 мин.
Перевод: Дублированный + Оригинальная дорожка-Режиссер: Филлида Ллойд
Продюссер: Джуди Креймер, Гари Гоэцман, Бенни Андерссон
Сценарий: Катрин Джонсон
Бюджет: $52 000 000
Премьера в мире: 30 июня 2008- 6.40 (54 736)--
В ролях: Аманда Сайфред, Мэрил Стрип, Пирс Броснан, Стеллан Скарсгард, Колин Фёрт, Джули Уолтерс, Кристин Барански, Рэйчел МакДауэлл, Эшли Лиллей, Доминик Купер-Описание: Молодая девушка Софи собирается выйти замуж и мечтает о том, чтобы церемония прошла по всем правилам. Она хочет пригласить на свадьбу своего отца, чтобы он отвел ее к алтарю. Но она не знает, кто он, так как ее мать Донна никогда не рассказывала о нем.Софи находит дневник матери, в котором та описывает отношения с тремя мужчинами. Софи решает отправить приглашения всем троим! Все самое интересное начинает происходить, когда на свадьбу приезжают гости...-Качество:BDRip 1080p.
Формат:MKV
Видео кодек:H.264
Аудио кодек:DTS
Видео: 1920 x 800 (2.400) at 23.976 fps AVC at 8920 Кбит/сек
Аудио: DTS at 755 Кбит/сек 6 каналов, 48,0 КГц - Русский
Субтитры:Русские - текты песен и надписи -VobSub.
Субтитры:Русские -диалоги + комментарии режисера -VobSub.
Субтитры:Русские - комментарии продюсеров и актеров -VobSub
Субтитры:Английские -VobSub
Релиз от:

MediaInfo

Полное имя : F:Mamma.Mia.2008.BDRip.AVC.1080p.mkv
Формат : Matroska
Версия формата : Version 2
Размер файла : 7,94 Гбайт
Продолжительность : 1 ч. 48 м.
Общий поток : 10,5 Мбит/сек
Дата кодирования : UTC 2011-07-25 12:53:47
Программа кодирования : mkvmerge v4.9.1 ('Ich will') сборка от Jul 11 2011 23:53:15
Библиотека кодирования : libebml v1.2.1 + libmatroska v1.1.1
Видео
Идентификатор : 1
Формат : AVC
Формат/Информация : Advanced Video Codec
Профиль формата : [email protected]
Параметр CABAC формата : Да
Параметр ReFrames формата : 5 кадров
Идентификатор кодека : V_MPEG4/ISO/AVC
Продолжительность : 1 ч. 48 м.
Вид битрейта : Переменный
Битрейт : 8920 Кбит/сек
Максимальный битрейт : 40,0 Мбит/сек
Ширина : 1920 пикс.
Высота : 800 пикс.
Соотношение сторон : 2,40:1
Частота кадров : 23,976 кадр/сек
Цветовое пространство : YUV
Подвыборка цветности : 4:2:0
Битовая глубина : 8 бит
Тип развёртки : Прогрессивная
Бит/(Пиксели*Кадры) : 0.242
Размер потока : 6,64 Гбайт (84%)
Заголовок : BDRip 1080p by FREEISLAND
Библиотека кодирования : x264 core 116 r2019 9cc407d
Настройки программы : cabac=1 / ref=5 / deblock=1:-3:-3 / analyse=0x3:0x133 / me=umh / subme=7 / psy=1 / psy_rd=1.00:0.00 / mixed_ref=1 / me_range=48 / chroma_me=1 / trellis=2 / 8x8dct=1 / cqm=0 / deadzone=21,11 / fast_pskip=0 / chroma_qp_offset=-2 / threads=9 / sliced_threads=0 / nr=0 / decimate=1 / interlaced=0 / bluray_compat=0 / constrained_intra=0 / bframes=9 / b_pyramid=2 / b_adapt=1 / b_bias=35 / direct=1 / weightb=1 / open_gop=0 / weightp=2 / keyint=250 / keyint_min=23 / scenecut=40 / intra_refresh=0 / rc=2pass / mbtree=0 / bitrate=8920 / ratetol=1.0 / qcomp=1.00 / qpmin=0 / qpmax=51 / qpstep=2 / cplxblur=20.0 / qblur=0.5 / ip_ratio=1.40 / pb_ratio=1.30 / aq=1:1.0
Язык : English
Основные цвета : BT.709-5, BT.1361, IEC 61966-2-4, SMPTE RP177
Характеристики трансфера : BT.709-5, BT.1361
Коэффициенты матрицы : BT.709-5, BT.1361, IEC 61966-2-4 709, SMPTE RP177
Аудио #1
Идентификатор : 2
Формат : DTS
Формат/Информация : Digital Theater Systems
Идентификатор кодека : A_DTS
Продолжительность : 1 ч. 48 м.
Вид битрейта : Постоянный
Битрейт : 755 Кбит/сек
Каналы : 6 каналов
Расположение каналов : Front: L C R, Side: L R, LFE
Частота : 48,0 КГц
Битовая глубина : 24 бит
Метод сжатия : С потерями
Задержка видео : 2 мс.
Размер потока : 586 Мбайт (7%)
Язык : Russian
Аудио #2
Идентификатор : 3
Формат : DTS
Формат/Информация : Digital Theater Systems
Идентификатор кодека : A_DTS
Продолжительность : 1 ч. 48 м.
Вид битрейта : Постоянный
Битрейт : 755 Кбит/сек
Каналы : 6 каналов
Расположение каналов : Front: L C R, Side: L R, LFE
Частота : 48,0 КГц
Битовая глубина : 24 бит
Метод сжатия : С потерями
Задержка видео : 2 мс.
Размер потока : 586 Мбайт (7%)
Язык : English
Текст #1
Идентификатор : 4
Формат : VobSub
Режим смешивания : zlib
Идентификатор кодека : S_VOBSUB
Идентификатор кодека/Информация : The same subtitle format used on DVDs
Заголовок : Песни и надписи
Язык : Russian
Текст #2
Идентификатор : 5
Формат : VobSub
Режим смешивания : zlib
Идентификатор кодека : S_VOBSUB
Идентификатор кодека/Информация : The same subtitle format used on DVDs
Заголовок : Коментарии режиссера
Язык : Russian
Текст #3
Идентификатор : 6
Формат : VobSub
Режим смешивания : zlib
Идентификатор кодека : S_VOBSUB
Идентификатор кодека/Информация : The same subtitle format used on DVDs
Заголовок : Коментарии продюсеров и актеров.
Язык : Russian
Текст #4
Идентификатор : 7
Формат : VobSub
Режим смешивания : zlib
Идентификатор кодека : S_VOBSUB
Идентификатор кодека/Информация : The same subtitle format used on DVDs
Язык : English
Меню
00:00:00.000 : en:Chapter 01
00:04:37.902 : en:Chapter 02
00:14:51.098 : en:Chapter 03
00:25:44.084 : en:Chapter 04
00:30:39.379 : en:Chapter 05
00:35:26.332 : en:Chapter 06
00:40:25.131 : en:Chapter 07
00:44:36.382 : en:Chapter 08
00:47:49.908 : en:Chapter 09
00:51:19.117 : en:Chapter 10
00:56:27.675 : en:Chapter 11
01:04:03.297 : en:Chapter 12
01:08:05.372 : en:Chapter 13
01:14:43.645 : en:Chapter 14
01:20:18.688 : en:Chapter 15
01:29:58.851 : en:Chapter 16
01:32:18.699 : en:Chapter 17
01:34:13.606 : en:Chapter 18
01:39:12.613 : en:Chapter 19
01:43:40.339 : en:Chapter 20
01:48:37.886 : en:Chapter 21
--            --

_________________


Last edited by sassad on 2011-07-31 16:35; edited 1 time in total
Other forum [Profile] [PM]
Display posts from previous:    
Reply to topic

The time now is: Today 20:38

All times are GMT + 3 Hours



You cannot post new topics in this forum
You cannot reply to topics in this forum
You cannot edit your posts in this forum
You cannot delete your posts in this forum
You cannot vote in polls in this forum
You cannot attach files in this forum
You cannot download files in this forum