Today is a free download without charge Download

Слизняк / Скользящий / Slither / Incisions (Джеймс Ганн / James Gunn) [2006, Канада, США, ужасы, фантастика, комедия, BDRip 1080p] MVO R5 (CP Digital) + Original Eng + Sub (Rus, Eng)

Reply to topic
 
Author
Message

Omen ®

Longevity: 8 years 5 months

Posts: 181087

Торрент-статистика

Post 16-May-2013 21:31

[Quote]

Слизняк / Скользящий / Slither / Incisions «Slug it out.» Год выпуска: 2006
Страна: Канада, США
Жанр: ужасы, фантастика, комедия
Продолжительность: 01:35:36
Перевод: Профессиональный (многоголосый закадровый) CP Digital
Оригинальная аудиодорожка: Английская
Субтитры: Русские (DENnv), английские (Full, SDH)
Студия: Gold Circle Films, Strike Entertainment, Brightlight Pictures, Slither Productions
Режиссёр: Джеймс Ганн / James Gunn
В ролях: Дон Томпсон, Натан Филлион, Роб Зомби, Грегг Генри, Элизабет Бэнкс, Таня Солнье, Дастин Миллиган, Майкл Рукер, Хэйг Сазерленд, Дженнифер Коппинг, Зак Людвиг, Кэтрин Киркпатрик, Бренда Джеймс, Лорена Гэйл, Барт Андерсон, Корби Ланд, Ллойд Кауфман, Том Хитон, Дженна Фишер, Бен Коттон, Ди Джей Джексон, Матрея Федор, Эмбер Ли Бартлетт, Уильям МакДональд и др.
Описание: Грант Грант, житель маленького городка Уилси, обнаруживает в лесу упавший метеорит. Из этого космического тела исторгается некая субстанция, которая тут же поселяется в груди Гранта. После этого с ним начинают происходить странные метаморфозы.
Он постоянно испытывает сильный голод, а его тело подвергается трансформациям. Когда же Грант осознает свое новое предназначение, он бросается превращать других жителей городка в таких же, как и он, ненасытных зомби. Первым делом Грант хочет проделать это с собственной женой Старлой, однако местный шериф Билл Парди делает все, чтобы защитить ее и весь город от космической чумы…

  • Blu-ray.com
  • Сэмпл
    Качество: BDRip 1080p (CHD)
    Контейнер: MKV
    Видео кодек: MPEG-4 AVC Video
    Аудио кодек: DTS Audio / Dolby Digital Audio
    Видео: MPEG-4 AVC Video / 11530 kbps / 1920x1080p / 23,976 fps / 16:9 / 0.232 bit/pix / [email protected]
    Аудио 1: Русский / Dolby Digital Audio / 2.0 / 48 kHz / 224 kbps / 16-bit / MVO CP Digital
    Аудио 2: English / DTS Audio / 5.1 / 48 kHz / 1536 kbps / 24-bit / Оригинал
    Навигация по главам: да
Цитата:
  • Релиз доступен благодаря проекту GORESEWAGE!

Дополнительная информация

  • В русской дорожке R5 во фронтах был оригинал - сделал даунмикс.

Скриншоты с названием фильма

MediaInfo

C:\/*spam*/\Слизняк (Скользящий) Slither (Incisions) 2006 Канада, США, ужасы, фантастика, комедия, BDRip 1080p GORESEWAGE.mkv
General
Unique ID : 217135450464253564244964420839512037344 (0xA35AC440240EDC56AFC74CA5F1E957E0)
Complete name : C:\/*spam*/\Слизняк (Скользящий) Slither (Incisions) 2006 Канада, США, ужасы, фантастика, комедия, BDRip 1080p GORESEWAGE.mkv
Format : Matroska
Format version : Version 4 / Version 2
File size : 8.85 GiB
Duration : 1h 35mn
Overall bit rate : 13.3 Mbps
Movie name : GORESEWAGE
Encoded date : UTC 2013-05-16 12:26:45
Writing application : mkvmerge v6.1.0 ('Old Devil') built on Mar 31 2013 15:21:18
Writing library : libebml v1.3.0 + libmatroska v1.4.0
Video #1
ID : 1
Format : AVC
Format/Info : Advanced Video Codec
Format profile : [email protected]
Format settings, CABAC : Yes
Format settings, ReFrames : 4 frames
Codec ID : V_MPEG4/ISO/AVC
Duration : 1h 35mn
Bit rate : 11.5 Mbps
Width : 1 920 pixels
Height : 1 080 pixels
Display aspect ratio : 16:9
Frame rate mode : Constant
Frame rate : 23.976 fps
Color space : YUV
Chroma subsampling : 4:2:0
Bit depth : 8 bits
Scan type : Progressive
Bits/(Pixel*Frame) : 0.232
Stream size : 7.52 GiB (85%)
Title : GORESEWAGE
Writing library : x264 core 88 r1471 1144615
Encoding settings : cabac=1 / ref=4 / deblock=1:-3:-3 / analyse=0x3:0x113 / me=umh / subme=9 / psy=1 / psy_rd=1.05:0.10 / mixed_ref=1 / me_range=32 / chroma_me=1 / trellis=2 / 8x8dct=1 / cqm=2 / deadzone=21,11 / fast_pskip=0 / chroma_qp_offset=-2 / threads=12 / sliced_threads=0 / nr=0 / decimate=1 / mbaff=0 / constrained_intra=0 / bframes=3 / b_pyramid=2 / b_adapt=2 / b_bias=0 / direct=3 / wpredb=1 / wpredp=2 / keyint=250 / keyint_min=25 / scenecut=40 / intra_refresh=0 / rc_lookahead=50 / rc=2pass / mbtree=1 / bitrate=11530 / ratetol=1.0 / qcomp=0.60 / qpmin=10 / qpmax=51 / qpstep=4 / cplxblur=20.0 / qblur=0.5 / vbv_maxrate=50000 / vbv_bufsize=50000 / ip_ratio=1.40 / aq=1:1.00
Language : English
Default : Yes
Forced : No
Audio #2
ID : 2
Format : AC-3
Format/Info : Audio Coding 3
Mode extension : CM (complete main)
Format settings, Endianness : Big
Codec ID : A_AC3
Duration : 1h 35mn
Bit rate mode : Constant
Bit rate : 224 Kbps
Channel(s) : 2 channels
Channel positions : Front: L R
Sampling rate : 48.0 KHz
Bit depth : 16 bits
Compression mode : Lossy
Stream size : 153 MiB (2%)
Title : Профессиональный (многоголосый закадровый) CP Digital
Language : Russian
Default : Yes
Forced : No
Audio #3
ID : 3
Format : DTS
Format/Info : Digital Theater Systems
Codec ID : A_DTS
Duration : 1h 35mn
Bit rate mode : Constant
Bit rate : 1 510 Kbps
Channel(s) : 6 channels
Channel positions : Front: L C R, Side: L R, LFE
Sampling rate : 48.0 KHz
Bit depth : 24 bits
Compression mode : Lossy
Stream size : 1.01 GiB (11%)
Title : Оригинал
Language : English
Default : No
Forced : No
Text #4
ID : 4
Format : UTF-8
Codec ID : S_TEXT/UTF8
Codec ID/Info : UTF-8 Plain Text
Title : DENnv
Language : Russian
Default : No
Forced : No
Text #5
ID : 5
Format : UTF-8
Codec ID : S_TEXT/UTF8
Codec ID/Info : UTF-8 Plain Text
Title : Full
Language : English
Default : No
Forced : No
Text #6
ID : 6
Format : UTF-8
Codec ID : S_TEXT/UTF8
Codec ID/Info : UTF-8 Plain Text
Title : SDH
Language : English
Default : No
Forced : No
Menu
00:00:00.000 : :chapter 1
00:03:30.001 : :chapter 2
00:07:13.350 : :chapter 3
00:15:11.702 : :chapter 4
00:19:31.629 : :chapter 5
00:25:22.104 : :chapter 6
00:28:40.552 : :chapter 7
00:33:44.272 : :chapter 8
00:38:55.458 : :chapter 9
00:42:10.862 : :chapter 10
00:49:19.790 : :chapter 11
00:54:46.909 : :chapter 12
00:58:48.150 : :chapter 13
01:03:46.406 : :chapter 14
01:07:44.018 : :chapter 15
01:10:39.944 : :chapter 16
01:16:55.194 : :chapter 17
01:19:37.606 : :chapter 18
01:22:16.140 : :chapter 19
01:26:37.609 : :chapter 20

Полноразмерный постер

Other forum [Profile] [PM]
Display posts from previous:    
Reply to topic

The time now is: Today 01:49

All times are GMT + 3 Hours



You cannot post new topics in this forum
You cannot reply to topics in this forum
You cannot edit your posts in this forum
You cannot delete your posts in this forum
You cannot vote in polls in this forum
You cannot attach files in this forum
You cannot download files in this forum