Today is a free download without charge Download

Одержимая / The Devil Inside (Уильям Брент Белл / William Brent Bell) [2012, США, Ужасы, триллер, BDRip 1080p] DUB (Blu-ray CEE) + VO (Zamez) + Sub Rus, Eng + Original Eng

Reply to topic
 
Author
Message

Omen ®

Longevity: 8 years 5 months

Posts: 181087

Торрент-статистика

Post 16-May-2013 17:27

[Quote]

Одержимая / The Devil Inside«No soul is safe.» Студия: & Insurge Pictures
Страна: США
Жанр: Ужасы, триллер
Год выпуска: 2012
Продолжительность: 01:23:10
Перевод: Профессиональный (дублированный) Blu-ray CEE
Перевод 2: Одноголосый (закадровый) Zamez
Cубтитры: русские, английские
Оригинальная аудиодорожка: английский
Режиссер: Уильям Брент Белл / William Brent Bell
В ролях: Фернанда Андраде, Саймон Куотерман, Ивэн Хельмут, Йонут Грама, Сюзен Краули, Бонни Морган, Брайан Джонсон, Джефф Викторофф, Памела Дэвис, Джон Проски...
Описание: В далеком 1989 году в службу 911 поступил звонок от Марии Росси, которая сообщила о том, что жестоко убила трех человек. 20 лет спустя, ее дочь Изабелла пытается выяснить, что же все-таки произошло с ее матерью.
Она отправляется в клинику для душевнобольных преступников в Италии, где находится ее мать, которую считают душевнобольной и одержимой дьяволом. Изабелла обращается за помощью к двум молодым священникам, которые собираются изгнать дьявола из ее матери с помощью нетрадиционной методики, но им придется столкнуться с неведомым доселе злом, ведь Мария одержима сразу четырьмя мощными демонами...

Тип релиза: BDRip 1080p
Контейнер: MKV
Видео: 1920x1080 at 23.976 fps, [email protected], crf, ~12100 kbps avg
Аудио: Russian: 48 kHz, AC3, 3/2 (L,C,R,l,r) + LFE ch, ~640.00 kbps avg |Дубляж, Blu-ray CEE|
Аудио 2: Russian: 48 kHz, AC3, 3/2 (L,C,R,l,r) + LFE ch, ~448.00 kbps avg |Одноголосый закадровый, Zamez|
Аудио 3: English: 48 kHz, DTS, 3/2 (L,C,R,l,r) + LFE ch, ~1536.00 kbps avg
Дополнительная информация:
  • Сохранены оригинальные чаптеры как на Blu-ray.
  • Автор рипа xmad

MediaInfo

Общее
Уникальный идентификатор : 187497609513222858355448912063019685668 (0x8D0EB9DF7A6012B6ACB838EC9D991724)
Полное имя : E:\torrent\Одержимая 1080р.mkv
Формат : Matroska
Версия формата : Version 2
Размер файла : 8,74 Гбайт
Продолжительность : 1 ч. 23 м.
Общий поток : 15,0 Мбит/сек
Название фильма : The Devil Inside (2011) - Release for HDCLUB
Дата кодирования : UTC 2012-07-01 15:32:53
Программа кодирования : mkvmerge v5.6.0 ('Kenya Kane') built on May 27 2012 16:44:04
Библиотека кодирования : libebml v1.2.3 + libmatroska v1.3.0
Видео
Идентификатор : 1
Формат : AVC
Формат/Информация : Advanced Video Codec
Профиль формата : [email protected]
Параметр CABAC формата : Да
Параметр ReFrames формата : 4 кадра
Идентификатор кодека : V_MPEG4/ISO/AVC
Продолжительность : 1 ч. 23 м.
Битрейт : 12,1 Мбит/сек
Ширина : 1920 пикселей
Высота : 1080 пикселей
Соотношение сторон : 16:9
Режим частоты кадров : Постоянный
Частота кадров : 23,976 кадра/сек
Цветовое пространство : YUV
Субдискретизация насыщенности : 4:2:0
Битовая глубина : 8 бит
Тип развёртки : Прогрессивная
Бит/(Пиксели*Кадры) : 0.244
Размер потока : 7,06 Гбайт (81%)
Заголовок : Release for HDCLUB
Библиотека кодирования : x264 core 125 r2200 999b753
Настройки программы : cabac=1 / ref=4 / deblock=1:-1:-1 / analyse=0x3:0x133 / me=umh / subme=11 / psy=1 / psy_rd=1.00:0.00 / mixed_ref=1 / me_range=32 / chroma_me=1 / trellis=2 / 8x8dct=1 / cqm=0 / deadzone=21,11 / fast_pskip=1 / chroma_qp_offset=-2 / threads=12 / lookahead_threads=2 / sliced_threads=0 / nr=0 / decimate=1 / interlaced=0 / bluray_compat=0 / constrained_intra=0 / bframes=10 / b_pyramid=2 / b_adapt=2 / b_bias=0 / direct=3 / weightb=1 / open_gop=0 / weightp=2 / keyint=240 / keyint_min=24 / scenecut=40 / intra_refresh=0 / rc_lookahead=50 / rc=crf / mbtree=1 / crf=17.5 / qcomp=0.60 / qpmin=0 / qpmax=69 / qpstep=4 / ip_ratio=1.40 / aq=1:1.00
Язык : English
Default : Да
Forced : Нет
Аудио #1
Идентификатор : 2
Формат : AC-3
Формат/Информация : Audio Coding 3
Расширение режима : CM (complete main)
Параметр Endianness формата : Big
Идентификатор кодека : A_AC3
Продолжительность : 1 ч. 23 м.
Вид битрейта : Постоянный
Битрейт : 640 Кбит/сек
Каналы : 6 каналов
Расположение каналов : Front: L C R, Side: L R, LFE
Частота : 48,0 КГц
Битовая глубина : 16 бит
Метод сжатия : С потерями
Размер потока : 381 Мбайт (4%)
Заголовок : (AC3 5.1 @ 640 kbps - Дублированный, BluRay)
Язык : Russian
Default : Да
Forced : Нет
Аудио #2
Идентификатор : 3
Формат : AC-3
Формат/Информация : Audio Coding 3
Расширение режима : CM (complete main)
Параметр Endianness формата : Big
Идентификатор кодека : A_AC3
Продолжительность : 1 ч. 23 м.
Вид битрейта : Постоянный
Битрейт : 448 Кбит/сек
Каналы : 6 каналов
Расположение каналов : Front: L C R, Side: L R, LFE
Частота : 48,0 КГц
Битовая глубина : 16 бит
Метод сжатия : С потерями
Размер потока : 267 Мбайт (3%)
Заголовок : (AC3 5.1 @ 448 kbps - Одноголосый закадровый,Zamez)
Язык : Russian
Default : Нет
Forced : Нет
Аудио #3
Идентификатор : 4
Формат : DTS
Формат/Информация : Digital Theater Systems
Режим : 16
Параметр Endianness формата : Big
Идентификатор кодека : A_DTS
Продолжительность : 1 ч. 23 м.
Вид битрейта : Постоянный
Битрейт : 1509 Кбит/сек
Каналы : 6 каналов
Расположение каналов : Front: L C R, Side: L R, LFE
Частота : 48,0 КГц
Битовая глубина : 24 бит
Метод сжатия : С потерями
Размер потока : 898 Мбайт (10%)
Заголовок : (DTS 5.1 @ 1536 kbps - Original)
Язык : English
Default : Нет
Forced : Нет
Текст #1
Идентификатор : 5
Формат : UTF-8
Идентификатор кодека : S_TEXT/UTF8
Идентификатор кодека/Информация : UTF-8 Plain Text
Заголовок : (SRT)
Язык : Russian
Default : Да
Forced : Нет
Текст #2
Идентификатор : 6
Формат : UTF-8
Идентификатор кодека : S_TEXT/UTF8
Идентификатор кодека/Информация : UTF-8 Plain Text
Заголовок : (SRT)
Язык : English
Default : Нет
Forced : Нет
Текст #3
Идентификатор : 7
Формат : UTF-8
Идентификатор кодека : S_TEXT/UTF8
Идентификатор кодека/Информация : UTF-8 Plain Text
Заголовок : (SRT)
Язык : English
Default : Нет
Forced : Нет
Меню
00:00:00.000 : :Chapter 01
00:04:05.703 : :Chapter 02
00:08:43.689 : :Chapter 03
00:14:55.936 : :Chapter 04
00:18:07.711 : :Chapter 05
00:24:34.139 : :Chapter 06
00:32:52.345 : :Chapter 07
00:42:59.660 : :Chapter 08
00:45:51.081 : :Chapter 09
00:53:59.277 : :Chapter 10
00:57:50.341 : :Chapter 11
01:00:06.394 : :Chapter 12
01:03:04.238 : :Chapter 13
01:09:07.810 : :Chapter 14
01:15:35.948 : :Chapter 15
01:23:10.151 : :Chapter 16

Скриншоты










Other forum [Profile] [PM]
Display posts from previous:    
Reply to topic

The time now is: Today 13:01

All times are GMT + 3 Hours



You cannot post new topics in this forum
You cannot reply to topics in this forum
You cannot edit your posts in this forum
You cannot delete your posts in this forum
You cannot vote in polls in this forum
You cannot attach files in this forum
You cannot download files in this forum