Today is a free download without charge Download

Захватчик / Invasor (Даниэль Кальпарсоро) [2012.., Триллер, BDRip 720p]

Reply to topic
 
Author
Message

Meshanik ®

Gender:

Longevity: 8 years 10 months

Posts: 3866

Location: Los Angeles

Торрент-статистика

Post 16-May-2013 08:59

[Quote]

Захватчик / Invasor- Русское название: Захватчик
Оригинальное название: Invasor
Год выпуска: 2012
Страна: Испания
Жанр: Триллер
Продолжительность: 01:39:01
Перевод: Одноголосый закадровый [den904]
Субтитры: нет-Режиссер: Даниэль Кальпарсоро
Сценарий: ХорхеАренильяс, Хавьер Гуджон, Фернандо Мариас
Продюсер: Гордон, Эмма Лустрес, Боржа Пена
В ролях: Алекс Хафнер, Антонио де ла Торре, Альберто Эмманн, Инма Куэста, Карра Элехальде, София Ория, Луис Захэра, Бернабе Фернандес, Бенжамин Натан-Серио, Изабель Бланко ...-Описание фильма:
Молодой врач Пабло отправляется в Ирак с гуманитарной миссией. Каждый день он выносит из-под обстрелараненых солдат, мирных граждан, женщин, детей, американцев, иракцев. Однажды попав в засаду иракских повстанцев, Паблочудом остается жив, но в его памяти сохранились лишь отдельные картинки всего, что случилось после того злосчастного взрыва. ТеперьПабло предстоит выяснить правду и понять кто он - национальный герой, чье имя у всех на устах, или соучастникжуткого по своей жестокости преступления.- -Дата мировой премьеры: 11 октября 2012-Видеокодек: MPEG4/ISO/AVC
Битрейт видео: ~4805 kb/s
Размер кадра: 1280x544
Качество видео: BDRip
Аудиокодек: АС3 5.1(RU)+DTS 5,1(SP)
Битрейт аудио:
Аудио #1: Русский: AC3, 48 Khz, 6 ch, 448 kb/s
Аудио #2: Испанский: DTS, 48 Khz, 6 ch, 755 Kb/s
-

MediaInfo

General
Complete name : D:\Video\Zahvatchik.2012.BDRip.720p.mkv
Format : Matroska
File size : 4.17 GiB
Duration : 1h 39mn
Overall bit rate : 6 024 Kbps
Encoded date : UTC 2013-05-10 08:16:02
Writing application : mkvmerge v5.2.0 ('I can't explain') built on Dec 18 2011 18:12:03
Writing library : libebml v1.2.3 + libmatroska v1.3.0
Video
ID : 1
Format : AVC
Format/Info : Advanced Video Codec
Format profile : [url=mailto:[email protected]][email protected][/url]
Format settings, CABAC : Yes
Format settings, ReFrames : 11 frames
Muxing mode : Container [email protected]
Codec ID : V_MPEG4/ISO/AVC
Duration : 1h 39mn
Bit rate : 4 702 Kbps
Nominal bit rate : 4 810 Kbps
Width : 1 280 pixels
Height : 544 pixels
Display aspect ratio : 2.35:1
Frame rate : 24.000 fps
Resolution : 8 bits
Colorimetry : 4:2:0
Scan type : Progressive
Bits/(Pixel*Frame) : 0.281
Stream size : 3.25 GiB (78%)
Title : Invasor.2012.720p.BluRay.DTS.x264-HDWinG
Writing library : x264 core 130 r2274+704+40 24c804d tMod+MixAQ [[email protected]:2:0 X86_64]
Encoding settings : cabac=1 / ref=11 / deblock=1:-3:-3 / analyse=0x3:0x113 / me=umh / subme=11 / psy=1 / fade_compensate=0.00 / psy_rd=1.05:0.00 / mixed_ref=1 / me_range=48 / chroma_me=1 / trellis=2 / 8x8dct=1 / cqm=0 / deadzone=21,11 / fast_pskip=0 / chroma_qp_offset=-2 / threads=12 / lookahead_threads=2 / sliced_threads=0 / nr=0 / decimate=0 / interlaced=0 / bluray_compat=0 / constrained_intra=0 / fgo=0 / bframes=8 / b_pyramid=2 / b_adapt=2 / b_bias=0 / direct=3 / weightb=1 / open_gop=0 / weightp=2 / keyint=240 / keyint_min=24 / scenecut=40 / intra_refresh=0 / rc=2pass / mbtree=0 / bitrate=4810 / ratetol=1.0 / qcomp=0.72 / qpmin=0 / qpmax=69 / qpstep=4 / cplxblur=20.0 / qblur=0.5 / ip_ratio=1.25 / pb_ratio=1.20 / aq=4:0.90 / aq-sensitivity=10.00 / aq-ifactor=1.00 / aq-pfactor=1.00 / aq-bfactor=1.00 / aq2=0
Audio #1
ID : 2
Format : AC-3
Format/Info : Audio Coding 3
Codec ID : A_AC3
Duration : 1h 39mn
Bit rate mode : Constant
Bit rate : 448 Kbps
Channel(s) : 6 channels
Channel positions : Front: L C R, Surround: L R, LFE
Sampling rate : 48.0 KHz
Stream size : 317 MiB (7%)
Title : DD 5.1 @ 448 kbps - L1, den904
Language : Russian
Audio #2
ID : 3
Format : DTS
Format/Info : Digital Theater Systems
Codec ID : A_DTS
Duration : 1h 39mn
Bit rate mode : Constant
Bit rate : 755 Kbps
Channel(s) : 6 channels
Channel positions : Front: L C R, Surround: L R, LFE
Sampling rate : 48.0 KHz
Resolution : 16 bits
Stream size : 534 MiB (13%)
Title : DTS 5.1 @ 768 kbps
Language : Spanish
Скриншоты:
         
Other forum [Profile] [PM]
Display posts from previous:    
Reply to topic

The time now is: Today 02:10

All times are GMT + 3 Hours



You cannot post new topics in this forum
You cannot reply to topics in this forum
You cannot edit your posts in this forum
You cannot delete your posts in this forum
You cannot vote in polls in this forum
You cannot attach files in this forum
You cannot download files in this forum