Today is a free download without charge Download

Близкие контакты третьей степени / Close Encounters of the Third Kind (1977) HDRip

Reply to topic
 
Author
Message

UndegraundMen ®

Longevity: 8 years 8 months

Posts: 25145

Торрент-статистика

Post 16-May-2013 05:35

[Quote]

Близкие контакты третьей степени / Close Encounters of the Third Kind (1977) HDRip- Русское название: Близкие контакты третьей степени
Оригинальное название: Close Encounters of the Third Kind
Год выпуска: 1977
Жанр: Фантастика, Драма, Приключения
Описание фильма:
Сбои в подаче электроэнергии, возвращение из ниоткуда самолетов, исчезнувших в 1945 году, обескураживают ученых. Наименее скептичные люди науки расценивают эти явления, как прямое доказательство существования разумной инопланетной формы жизни. Рой Неари едет в пустыню, где были найдены самолеты, чтобы провести собственное расследование. Ночью его автомобиль застревает на шоссе. Неожиданно в темном небе появляется загадочный источник яркого света. Всего на мгновенье Неари попадает под его лучи, несущие информацию из далеких миров. После контакта с внеземной цивилизацией Рой оказывается во власти странных видений, и это происходит не только с ним…
Режиссер: Стивен Спилберг / Steven Spielberg
Актеры: Ричард Дрейфус, Франсуа Трюффо, Тери Гарр, Мелинда Диллон, Боб Балабан, Патрик МакНамара, Уоррен Дж. Кеммерлинг, Робертс Блоссом, Филип Доддс, Кэри Гаффи
Продолжительность: 02:17:14
Перевод: Многоголосый закадровый
Язык: Русский
Язык субтитров: Отсутствуют
IMDB-рейтинг: 7,7/10 (94 170 users) Ссылка

Дата мировой премьеры: 15 ноября 1977
Видеокодек: Xvid
Битрейт видео: ~1066 kbps avg
Размер кадра: 720x304
Качество видео: HDRip
Аудиокодек: AC3
Битрейт аудио: ~448.00 kbps avg Общее
Полное имя : D:\KINO\кино\ПРОВЕРКА РЕЛИЗОВ\Close_Encounters.avi
Формат : AVI
Формат/Информация : Audio Video Interleave
Размер файла : 1,45 Гбайт
Продолжительность : 2 ч. 17 м.
Общий поток : 1516 Кбит/сек
Программа кодирования : VirtualDubMod 1.5.10.2 (build 2540/release)
Библиотека кодирования : VirtualDubMod build 2540/release
Видео
Идентификатор : 0
Формат : MPEG-4 Visual
Профиль формата : Advanced [email protected]
Параметр BVOP формата : 1
Параметр QPel формата : Нет
Параметр GMC формата : Без точки перехода
Параметр матрицы формата : Default (H.263)
Идентификатор кодека : XVID
Идентификатор кодека/Подсказка : XviD
Продолжительность : 2 ч. 17 м.
Битрейт : 999 Кбит/сек
Ширина : 720 пикселей
Высота : 304 пикселя
Соотношение сторон : 2,35:1
Частота кадров : 23,976 кадра/сек
Цветовое пространство : YUV
Субдискретизация насыщенности : 4:2:0
Битовая глубина : 8 бит
Тип развёртки : Прогрессивная
Метод сжатия : С потерями
Бит/(Пиксели*Кадры) : 0.190
Размер потока : 981 Мбайт (66%)
Библиотека кодирования : XviD 1.2.0.dev47 (UTC 2006-11-01)
Аудио
Идентификатор : 1
Формат : AC-3
Формат/Информация : Audio Coding 3
Расширение режима : CM (complete main)
Параметр Endianness формата : Big
Идентификатор кодека : 2000
Продолжительность : 2 ч. 14 м.
Вид битрейта : Постоянный
Битрейт : 448 Кбит/сек
Каналы : 6 каналов
Расположение каналов : Front: L C R, Side: L R, LFE
Частота : 48,0 КГц
Битовая глубина : 16 бит
Метод сжатия : С потерями
Размер потока : 432 Мбайт (29%)
Выравнивание : Разделение по промежуткамСкриншоты:          Время раздачи: ~ С 14:00 до 03:00
Other forum [Profile] [PM]
Display posts from previous:    
Reply to topic

The time now is: Today 11:15

All times are GMT + 3 Hours



You cannot post new topics in this forum
You cannot reply to topics in this forum
You cannot edit your posts in this forum
You cannot delete your posts in this forum
You cannot vote in polls in this forum
You cannot attach files in this forum
You cannot download files in this forum