Today is a free download without charge Download

Библиотекарь 2: Возвращение в Копи Царя Соломона / The Librarian: Return to King Solomon's Mines (Джонатан Фрейкс) (фэнтези, боевик, приключения, 2006) [720p] ATV

Reply to topic
 
Author
Message

Omen ®

Longevity: 8 years 5 months

Posts: 181087

Торрент-статистика

Post 15-May-2013 21:25

[Quote]

Библиотекарь 2: Возвращение в Копи Царя Соломона
The Librarian: Return to King Solomon's Mines

«New Continent. New Adventure. Still No Clue.»
- Русское название: Библиотекарь 2: Возвращение в Копи Царя Соломона
Оригинальное название: The Librarian: Return to King Solomon's Mines
Год: 2006
Страна/Студия: США / © Turner Network Television (TNT), Electric Entertainment
Жанр: фэнтези, боевик, приключения
Продолжительность: 01:32:02
Перевод: Русский закадровый многоголосый
Субтитры / Язык субтитров: Отсутствует
Навигация: по главам (с изображениями)
Рейтинг MPAA -16+-Режиссёр: Джонатан Фрейкс
В ролях: Ноа Уайли, Габриель Анвар, Боб Ньюхарт, Джейн Куртин, Олимпия Дукакис, Эрик Авари, Хаким Кае-Казим, Роберт Фоксуорт, Занн МаКларнон, Лиза Бреннер
Описание: Флин Карсен, интеллигентный юноша, сотрудник Нью Йоркской библиотеки. Но в его душе всегда жила страсть к приключениям, тайнам и всему тому, чем грезит любой мальчишка. Однажды, ему на глаза попадается интереснейший труд о легендарных Копях Царя Соломона. Флин решает найти мифические сокровища, променяв затхлый воздух помещения и книжных клопов на дух романтики и авантюризма...- -Видео: H.264, 23.976 fps, ~ 7180 кбит/сек, 1280x720 (16:9)
Аудио:
* ААС 2.0 180 kbps - Русский закадровый многоголосый
* АС3 5.1 448 kbps - Русский закадровый многоголосый
* ААС 2.0 192 kbps - Английский
* АС3 5.1 640 kbps - Английский
Субтитры:
* 3GPP Text - Отсутствует

Media Info

Код:
Общее
Полное имя : /Users/gekkas/Movies/The Librarian-Return to King Solomon's Mines.2006 (HD).m4v
Формат : MPEG-4
Идентификатор кодека : M4V
Размер файла : 5,55 Гбайт
Продолжительность : 1 ч. 32 м.
Режим общего битрейта : Переменный
Общий поток : 8635 Кбит/сек
Название фильма : Библиотекарь 2: Возвращение в Копи Царя Соломона
Исполнитель : Jonathan Frakes
Жанр : Action & Adventure
Дата записи : UTC 2006-10-09 07:00:00
Дата кодирования : UTC 2013-05-15 07:31:18
Дата пометки : UTC 2013-05-15 08:14:17
Правообладатель : © Turner Network Television (TNT), Electric Entertainment
Обложка : Yes
Примечание : «New Continent. New Adventure. Still No Clue.»
sonm : The Librarian: Return to King Solomon's Mines
desc : Флин Карсен, интеллигентный юноша, сотрудник Нью Йоркской библиотеки. Но в его душе всегда жила страсть к приключениям, тайнам и всему тому, чем грезит любой мальчишка. Однажды, ему на глаза попадается интереснейший труд о легендарных Копях ...
ldes : Флин Карсен, интеллигентный юноша, сотрудник Нью Йоркской библиотеки. Но в его душе всегда жила страсть к приключениям, тайнам и всему тому, чем грезит любой мальчишка. Однажды, ему на глаза попадается интереснейший труд о легендарных Копях Царя Соломона. Флин решает найти мифические сокровища, променяв затхлый воздух помещения и книжных клопов на дух романтики и авантюризма…
hdvd : 1
stik : 9
rtng : 0
cnID : 229931
xid : Apple:vendor_id:2006-229931
iTunEXTC : mpaa|PG|200|
iTunMOVI :  /  /  /  /   cast /    /      /       name /       Ноа Уайли /      /      /       name /       Габриель Анвар /      /      /       name /       Боб Ньюхарт /      /      /       name /       Джейн Куртин /      /      /       name /       Олимпия Дукакис /      /      /       name /       Эрик Авари /      /      /       name /       Хаким Кае-Казим /      /      /       name /       Роберт Фоксуорт /      /      /       name /       Занн МаКларнон /      /      /       name /       Лиза Бреннер /      /    /   directors /    /      /       name /       Джонатан Фрейкс /      /    /   producers /    /      /       name /       Майкл С. Мёрфи /      /      /       name /       Ноа Уайли /      /      /       name /       Пол Ф. Бернард /      /    /   screenwriters /    /      /       name /       Марко Шнабель /      /      /       name /       Дэвид Н. Титчер /      /    /   studio /   © Turner Network Television (TNT), Electric Entertainment  /  /
Видео #1
Идентификатор : 1
Формат : AVC
Формат/Информация : Advanced Video Codec
Профиль формата : [url=mailto:[email protected]][email protected][/url]
Параметр CABAC формата : Да
Параметр ReFrames формата : 8 кадров
Идентификатор кодека : avc1
Идентификатор кодека/Информация : Advanced Video Coding
Продолжительность : 1 ч. 32 м.
Битрейт : 7180 Кбит/сек
Максимальный битрейт : 28,5 Мбит/сек
Ширина : 1280 пикселей
Высота : 720 пикселей
Соотношение сторон : 16:9
Режим частоты кадров : Постоянный
Частота кадров : 23,976 кадра/сек
Цветовое пространство : YUV
Субдискретизация насыщенности : 4:2:0
Битовая глубина : 8 бит
Тип развёртки : Прогрессивная
Бит/(Пиксели*Кадры) : 0.325
Размер потока : 4,62 Гбайт (83%)
Библиотека кодирования : x264 core 132 r2309+704+40 1360ac3 tMod [[email protected] X86_64]
Настройки программы : cabac=1 / ref=9 / deblock=1:-3:-3 / analyse=0x3:0x113 / me=umh / subme=11 / psy=1 / fade_compensate=0.90 / psy_rd=1.05:0.10 / mixed_ref=1 / me_range=48 / chroma_me=1 / trellis=2 / 8x8dct=1 / cqm=0 / deadzone=21,11 / fast_pskip=0 / chroma_qp_offset=-3 / threads=12 / lookahead_threads=3 / sliced_threads=0 / nr=0 / decimate=1 / interlaced=0 / bluray_compat=0 / constrained_intra=0 / fgo=0 / bframes=12 / b_pyramid=1 / b_adapt=2 / b_bias=0 / direct=1 / weightb=1 / open_gop=0 / weightp=2 / keyint=250 / keyint_min=23 / scenecut=40 / intra_refresh=0 / rc_lookahead=180 / rc=2pass / mbtree=1 / bitrate=7180 / ratetol=1.0 / qcomp=0.70 / qpmin=0 / qpmax=69 / qpstep=4 / cplxblur=20.0 / qblur=0.5 / vbv_maxrate=62500 / vbv_bufsize=50000 / nal_hrd=none / ip_ratio=1.40 / aq=4:0.90 / aq-sensitivity=10.00 / aq-factor=1.00:1.00:1.00 / aq2=0 / aq3=1:[0.85:0.80]:[0.85:0.80]:[0.85:0.80]:[0.85:0.80] / aq3-sensitivity=10.00 / aq3-factor=[1.00:1.00]:[1.00:1.00]:[1.00:1.00] / aq3-boundary=205:56:9
Язык : English
Дата кодирования : UTC 2013-05-15 07:31:18
Дата пометки : UTC 2013-05-15 07:32:45
Коэффициенты матрицы : BT.709
Видео #2
Идентификатор : 7
Формат : JPEG
Идентификатор кодека : jpeg
Продолжительность : 1 ч. 32 м.
Вид битрейта : Переменный
Битрейт : 679 бит/сек
Ширина : 640 пикселей
Высота : 360 пикселей
Соотношение сторон : 16:9
Режим частоты кадров : Переменный
Частота кадров : 0,002 кадр/сек
Минимальная частота кадров : 0,002 кадр/сек
Максимальная частота кадров : 0,020 кадр/сек
Цветовое пространство : YUV
Субдискретизация насыщенности : 4:2:0
Битовая глубина : 8 бит
Метод сжатия : С потерями
Бит/(Пиксели*Кадры) : 1.474
Размер потока : 497 Кбайт (0%)
Язык : English
Дата кодирования : UTC 2013-05-15 08:13:54
Дата пометки : UTC 2013-05-15 08:13:54
Аудио #1
Идентификатор : 2
Формат : AAC
Формат/Информация : Advanced Audio Codec
Профиль формата : LC
Идентификатор кодека : 40
Продолжительность : 1 ч. 32 м.
Вид битрейта : Переменный
Битрейт : 170 Кбит/сек
Максимальный битрейт : 219 Кбит/сек
Каналы : 2 канала
Расположение каналов : Front: L R
Частота : 48,0 КГц
Метод сжатия : С потерями
Размер потока : 112 Мбайт (2%)
Заголовок : AAC Russian MVO
Язык : Russian
Дата кодирования : UTC 2013-05-15 07:32:12
Дата пометки : UTC 2013-05-15 07:32:45
Аудио #2
Идентификатор : 3
Формат : AC-3
Формат/Информация : Audio Coding 3
Расширение режима : CM (complete main)
Параметр Endianness формата : Big
Идентификатор кодека : ac-3
Продолжительность : 1 ч. 32 м.
Вид битрейта : Постоянный
Битрейт : 448 Кбит/сек
Каналы : 6 каналов
Расположение каналов : Front: L C R, Side: L R, LFE
Частота : 48,0 КГц
Битовая глубина : 16 бит
Метод сжатия : С потерями
Размер потока : 295 Мбайт (5%)
Заголовок : AC3 Russian MVO
Язык : Russian
Дата кодирования : UTC 2013-05-15 07:32:14
Дата пометки : UTC 2013-05-15 07:32:45
Аудио #3
Идентификатор : 4
Формат : AAC
Формат/Информация : Advanced Audio Codec
Профиль формата : LC
Идентификатор кодека : 40
Продолжительность : 1 ч. 32 м.
Вид битрейта : Переменный
Битрейт : 192 Кбит/сек
Максимальный битрейт : 239 Кбит/сек
Каналы : 2 канала
Расположение каналов : Front: L R
Частота : 48,0 КГц
Метод сжатия : С потерями
Размер потока : 125 Мбайт (2%)
Заголовок : AAC English
Язык : English
Дата кодирования : UTC 2013-05-15 07:32:27
Дата пометки : UTC 2013-05-15 07:32:45
Аудио #4
Идентификатор : 5
Формат : AC-3
Формат/Информация : Audio Coding 3
Расширение режима : CM (complete main)
Параметр Endianness формата : Big
Идентификатор кодека : ac-3
Продолжительность : 1 ч. 32 м.
Вид битрейта : Постоянный
Битрейт : 640 Кбит/сек
Каналы : 6 каналов
Расположение каналов : Front: L C R, Side: L R, LFE
Частота : 48,0 КГц
Битовая глубина : 16 бит
Метод сжатия : С потерями
Размер потока : 421 Мбайт (7%)
Заголовок : AC3 English
Язык : English
Дата кодирования : UTC 2013-05-15 07:32:28
Дата пометки : UTC 2013-05-15 07:32:45
Текст
Идентификатор : 6
Формат : Apple text
Идентификатор кодека : text
Продолжительность : 1 ч. 32 м.
Вид битрейта : Постоянный
Битрейт : 0 бит/сек
Размер потока : 312 байт (0%)
Язык : English
Дата кодирования : UTC 2013-05-15 08:13:43
Дата пометки : UTC 2013-05-15 08:13:43
Меню
00:00:00.000 : 00:00:00.000
00:06:43.111 : 00:06:43.111
00:13:57.587 : 00:13:57.587
00:20:16.340 : 00:20:16.340
00:30:03.176 : 00:30:03.176
00:38:07.118 : 00:38:07.118
00:48:11.263 : 00:48:11.263
00:57:55.639 : 00:57:55.639
01:05:09.447 : 01:05:09.447
01:15:47.877 : 01:15:47.877
01:25:28.081 : 01:25:28.081
01:31:11.299 : 01:31:11.299

x264 Log

x264 [info]: started at Sat May 11 00:02:25 2013
x264 [info]: frame I:944 Avg QP:15.28 size:145846
x264 [info]: frame P:26776 Avg QP:18.19 size: 60504
x264 [info]: frame B:104688 Avg QP:19.97 size: 30552
x264 [info]: consecutive B-frames: 1.8% 2.1% 6.4% 14.5% 16.1% 44.1% 6.5% 1.8% 2.2% 1.0% 0.8% 2.2% 0.5%
x264 [info]: mb I I16..4: 10.6% 74.2% 15.2%
x264 [info]: mb P I16..4: 1.4% 19.8% 2.0% P16..4: 28.8% 34.9% 10.7% 0.0% 0.0% skip: 2.3%
x264 [info]: mb B I16..4: 0.2% 3.9% 0.2% B16..8: 36.6% 21.2% 3.7% direct:11.6% skip:22.6% L0:40.6% L1:42.7% BI:16.7%
x264 [info]: 8x8 transform intra:86.7% inter:60.3%
x264 [info]: coded y,uvDC,uvAC intra: 93.8% 87.6% 63.7% inter: 43.1% 41.3% 5.9%
x264 [info]: i16 v,h,dc,p: 18% 9% 11% 61%
x264 [info]: i8 v,h,dc,ddl,ddr,vr,hd,vl,hu: 9% 8% 8% 10% 13% 12% 13% 12% 14%
x264 [info]: i4 v,h,dc,ddl,ddr,vr,hd,vl,hu: 9% 8% 4% 9% 15% 14% 15% 11% 14%
x264 [info]: i8c dc,h,v,p: 43% 24% 18% 15%
x264 [info]: Weighted P-Frames: Y:3.1% UV:1.1%
x264 [info]: ref P L0: 53.4% 6.8% 17.1% 8.2% 5.6% 4.0% 3.0% 1.7% 0.1% 0.0%
x264 [info]: ref B L0: 79.0% 10.4% 5.1% 2.4% 1.6% 1.1% 0.5%
x264 [info]: ref B L1: 91.7% 8.3%
x264 [info]: kb/s:7179.61
Скриншоты:
             

Thx & source

За исходник спасибо: - BLUEBIRD
Other forum [Profile] [PM]
Similar theme
Forum Topic Author Torrent Replies Last Post
./templates/default/images/folder_dl.gif Техническая и научно-популярная литература В.В.Станцо, М.Б.Черненко | Популярная библиотека химических элементов. Кн. 1 и 2 [1983] [PDF] UndegraundMen
1 | 0

0 | 1027

3

2013-03-04 22:21
UndegraundMen Latest
./templates/default/images/folder_sticky.gif Разножанровые коллекции книг и библиотеки Библиотека Либрусек (lib.rus.ec) + MyHomeLib [2009-2021, FB2] (Дополняемая) DED
1 | 0

6 | 1428

0

Yesterday 20:36
DED Latest
./templates/default/images/folder_sticky.gif Разножанровые коллекции книг и библиотеки Библиотека Flibusta + MyHomeLib [2009-2021, FB2] (Дополняемая) DED
1 | 0

6 | 1227

0

2021-04-08 18:58
DED Latest
Display posts from previous:    
Reply to topic

The time now is: Today 13:55

All times are GMT + 3 Hours



You cannot post new topics in this forum
You cannot reply to topics in this forum
You cannot edit your posts in this forum
You cannot delete your posts in this forum
You cannot vote in polls in this forum
You cannot attach files in this forum
You cannot download files in this forum