Today is a free download without charge Download

Библиотекарь 3: Проклятие иудовой чаши / The Librarian: The Curse of the Judas Chalice (Джонатан Фрейкс) (фэнтези, боевик, приключения, 2008) [720p] ATV

Reply to topic
 
Author
Message

Omen ®

Longevity: 8 years 5 months

Posts: 181087

Торрент-статистика

Post 15-May-2013 21:25

[Quote]

Библиотекарь 3: Проклятие иудовой чаши
The Librarian: The Curse of the Judas Chalice

- Русское название: Библиотекарь 3: Проклятие иудовой чаши
Оригинальное название: The Librarian: The Curse of the Judas Chalice
Год: 2008
Страна/Студия: США / © Electric Entertainment
Жанр: фэнтези, боевик, приключения
Продолжительность: 01:30:08
Перевод: Русский закадровый многоголосый
Субтитры / Язык субтитров: Русский
Навигация: по главам (с изображениями)
Рейтинг MPAA -16+-Режиссёр: Джонатан Фрейкс
В ролях: Ноа Уайли, Брюс Дэвисон, Стана Катич, Боб Ньюхарт, Джейн Куртин, Дикран Тулейн, Джейсон Дуглас, Элизабет Бурвант, Джо Кнезевич, Дэвид Борн
Описание: Третья часть захватывающих приключений Флина Карсена, в которой Флину вновь предстоит спасти мир, но уже от угрожающего всеобщему спокойствию воскрешения Графа Дракулы. Находясь в отпуске, Флин знакомится с умопомрачительной красоткой Симоной, которая совершенно неожиданно для Флина узнает в нем Библиотекаря и обращается к нему за помощью. Вместе они пытаются опередить русского злодея в поисках Чаши Иуды, которая одна способна воскресить к жизни великого вампира.- -Видео: H.264, 23.976 fps, ~ 4069 кбит/сек, 1280x720 (16:9)
Аудио:
* ААС 2.0 192 kbps - Русский закадровый многоголосый
* АС3 5.1 448 kbps - Русский закадровый многоголосый
* ААС 2.0 192 kbps - Английский
* АС3 5.1 640 kbps - Английский
Субтитры:
* 3GPP Text - Русский

Media Info

Код:
Общее
Полное имя : /Users/gekkas/Movies/The Librarian-The Curse of the Judas Chalice.2008 (HD).m4v
Формат : MPEG-4
Идентификатор кодека : M4V
Размер файла : 3,49 Гбайт
Продолжительность : 1 ч. 30 м.
Режим общего битрейта : Переменный
Общий поток : 5546 Кбит/сек
Название фильма : Библиотекарь 3: Проклятье иудовой чаши
Исполнитель : Jonathan Frakes
Жанр : Action & Adventure
Дата записи : UTC 2009-02-24 08:00:00
Дата кодирования : UTC 2013-05-13 15:25:23
Дата пометки : UTC 2013-05-15 07:26:05
Правообладатель : © Electric Entertainment
Обложка : Yes
sonm : The Librarian: The Curse of the Judas Chalice
desc : Третья часть захватывающих приключений Флина Карсена, в которой Флину вновь предстоит спасти мир, но уже от угрожающего всеобщему спокойствию воскрешения Графа Дракулы.
ldes : Третья часть захватывающих приключений Флина Карсена, в которой Флину вновь предстоит спасти мир, но уже от угрожающего всеобщему спокойствию воскрешения Графа Дракулы. Находясь в отпуске, Флин знакомится с умопомрачительной красоткой Симоной, которая совершенно неожиданно для Флина узнает в нем Библиотекаря и обращается к нему за помощью. Вместе они пытаются опередить русского злодея в поисках Чаши Иуды, которая одна способна воскресить к жизни великого вампира.
hdvd : 1
stik : 9
rtng : 0
cnID : 301166695
xid : Apple:vendor_id:2008-400594
iTunEXTC : de-movie|ab 16 Jahren|500|
iTunMOVI :  /  /  /  /   cast /    /      /       name /       Ноа Уайли /      /      /       name /       Брюс Дэвисон /      /      /       name /       Стана Катич /      /      /       name /       Боб Ньюхарт /      /      /       name /       Джейн Куртин /      /      /       name /       Дикран Тулейн /      /      /       name /       Джейсон Дуглас /      /      /       name /       Элизабет Бурвант /      /      /       name /       Джо Кнезевич /      /      /       name /       Дэвид Борн /      /    /   directors /    /      /       name /       Джонатан Фрейкс /      /    /   producers /    /      /       name /       Филлип М. Голдфарб /      /      /       name /       Ноа Уайли /      /      /       name /       Дин Девлин /      /    /   screenwriters /    /      /       name /       Марко Шнабель /      /    /   studio /   © Electric Entertainment /  /
Видео #1
Идентификатор : 1
Формат : AVC
Формат/Информация : Advanced Video Codec
Профиль формата : [url=mailto:[email protected]][email protected][/url]
Параметр CABAC формата : Да
Параметр ReFrames формата : 9 кадров
Идентификатор кодека : avc1
Идентификатор кодека/Информация : Advanced Video Coding
Продолжительность : 1 ч. 30 м.
Битрейт : 4069 Кбит/сек
Максимальный битрейт : 29,0 Мбит/сек
Ширина : 1280 пикселей
Высота : 720 пикселей
Соотношение сторон : 16:9
Режим частоты кадров : Постоянный
Частота кадров : 23,976 кадра/сек
Цветовое пространство : YUV
Субдискретизация насыщенности : 4:2:0
Битовая глубина : 8 бит
Тип развёртки : Прогрессивная
Бит/(Пиксели*Кадры) : 0.184
Размер потока : 2,56 Гбайт (73%)
Библиотека кодирования : x264 core 129 r2245+704+36 8e61944 tMod+MixAQ [[email protected] X86_64]
Настройки программы : cabac=1 / ref=9 / deblock=1:-3:-3 / analyse=0x3:0x113 / me=umh / subme=11 / psy=1 / fade_compensate=0.90 / psy_rd=1.00:0.15 / mixed_ref=1 / me_range=48 / chroma_me=1 / trellis=2 / 8x8dct=1 / cqm=0 / deadzone=21,11 / fast_pskip=0 / chroma_qp_offset=-3 / threads=18 / lookahead_threads=3 / sliced_threads=0 / nr=0 / decimate=0 / interlaced=0 / bluray_compat=0 / constrained_intra=0 / fgo=0 / bframes=14 / b_pyramid=2 / b_adapt=2 / b_bias=0 / direct=3 / weightb=1 / open_gop=0 / weightp=2 / keyint=250 / keyint_min=23 / scenecut=40 / intra_refresh=0 / rc_lookahead=180 / rc=crf / mbtree=1 / crf=18.0000 / qcomp=0.70 / qpmin=0 / qpmax=69 / qpstep=4 / vbv_maxrate=62500 / vbv_bufsize=50000 / crf_max=0.0 / nal_hrd=none / ip_ratio=1.30 / aq=4 / aq-strength=0.80 / aq-sensitivity=10.00 / aq-ifactor=1.00 / aq-pfactor=1.00 / aq-bfactor=1.00 / aq2=0
Язык : English
Дата кодирования : UTC 2013-05-13 15:25:23
Дата пометки : UTC 2013-05-13 15:25:41
Коэффициенты матрицы : BT.709
Видео #2
Идентификатор : 8
Формат : JPEG
Идентификатор кодека : jpeg
Продолжительность : 1 ч. 30 м.
Вид битрейта : Переменный
Битрейт : 1228 бит/сек
Ширина : 640 пикселей
Высота : 360 пикселей
Соотношение сторон : 16:9
Режим частоты кадров : Переменный
Частота кадров : 0,004 кадр/сек
Минимальная частота кадров : 0,002 кадр/сек
Максимальная частота кадров : 0,029 кадр/сек
Цветовое пространство : YUV
Субдискретизация насыщенности : 4:2:0
Битовая глубина : 8 бит
Метод сжатия : С потерями
Бит/(Пиксели*Кадры) : 1.332
Размер потока : 749 Кбайт (0%)
Язык : English
Дата кодирования : UTC 2013-05-15 07:24:03
Дата пометки : UTC 2013-05-15 07:24:03
Аудио #1
Идентификатор : 2
Формат : AAC
Формат/Информация : Advanced Audio Codec
Профиль формата : LC
Идентификатор кодека : 40
Продолжительность : 1 ч. 30 м.
Вид битрейта : Переменный
Битрейт : 192 Кбит/сек
Максимальный битрейт : 236 Кбит/сек
Каналы : 2 канала
Расположение каналов : Front: L R
Частота : 48,0 КГц
Метод сжатия : С потерями
Размер потока : 122 Мбайт (3%)
Заголовок : AAC Russian MVO
Язык : Russian
Дата кодирования : UTC 2013-05-13 15:25:35
Дата пометки : UTC 2013-05-13 15:25:41
Аудио #2
Идентификатор : 3
Формат : AC-3
Формат/Информация : Audio Coding 3
Расширение режима : CM (complete main)
Параметр Endianness формата : Big
Идентификатор кодека : ac-3
Продолжительность : 1 ч. 30 м.
Вид битрейта : Постоянный
Битрейт : 448 Кбит/сек
Каналы : 6 каналов
Расположение каналов : Front: L C R, Side: L R, LFE
Частота : 48,0 КГц
Битовая глубина : 16 бит
Метод сжатия : С потерями
Размер потока : 289 Мбайт (8%)
Заголовок : AC3 Russian MVO
Язык : Russian
Дата кодирования : UTC 2013-05-13 15:25:36
Дата пометки : UTC 2013-05-13 15:25:41
Аудио #3
Идентификатор : 4
Формат : AAC
Формат/Информация : Advanced Audio Codec
Профиль формата : LC
Идентификатор кодека : 40
Продолжительность : 1 ч. 30 м.
Вид битрейта : Переменный
Битрейт : 192 Кбит/сек
Максимальный битрейт : 226 Кбит/сек
Каналы : 2 канала
Расположение каналов : Front: L R
Частота : 48,0 КГц
Метод сжатия : С потерями
Размер потока : 123 Мбайт (3%)
Заголовок : AAC English
Язык : English
Дата кодирования : UTC 2013-05-13 15:25:38
Дата пометки : UTC 2013-05-13 15:25:41
Аудио #4
Идентификатор : 5
Формат : AC-3
Формат/Информация : Audio Coding 3
Расширение режима : CM (complete main)
Параметр Endianness формата : Big
Идентификатор кодека : ac-3
Продолжительность : 1 ч. 30 м.
Вид битрейта : Постоянный
Битрейт : 640 Кбит/сек
Каналы : 6 каналов
Расположение каналов : Front: L C R, Side: L R, LFE
Частота : 48,0 КГц
Битовая глубина : 16 бит
Метод сжатия : С потерями
Размер потока : 413 Мбайт (12%)
Заголовок : AC3 English
Язык : English
Дата кодирования : UTC 2013-05-13 15:25:39
Дата пометки : UTC 2013-05-13 15:25:41
Текст #1
Идентификатор : 6
Формат : Timed text
Режим смешивания : sbtl
Идентификатор кодека : tx3g
Продолжительность : 1 ч. 29 м.
Вид битрейта : Переменный
Битрейт : 94 бит/сек
Размер потока : 61,4 Кбайт (0%)
Заголовок : Subtitle Russian
Язык : Russian
Дата кодирования : UTC 2013-05-13 15:25:41
Дата пометки : UTC 2013-05-13 15:25:41
Текст #2
Идентификатор : 7
Формат : Apple text
Идентификатор кодека : text
Продолжительность : 1 ч. 30 м.
Вид битрейта : Постоянный
Битрейт : 1 бит/сек
Размер потока : 520 байт (0%)
Язык : English
Дата кодирования : UTC 2013-05-15 07:23:43
Дата пометки : UTC 2013-05-15 07:23:43
Меню
00:00:00.000 : 00:00:00.000
00:02:42.496 : 00:02:42.496
00:09:09.716 : 00:09:09.716
00:11:12.672 : 00:11:12.672
00:18:48.586 : 00:18:48.586
00:21:36.712 : 00:21:36.712
00:25:28.277 : 00:25:28.277
00:32:09.177 : 00:32:09.177
00:36:46.913 : 00:36:46.913
00:41:55.138 : 00:41:55.138
00:44:22.451 : 00:44:22.451
00:50:21.977 : 00:50:21.977
00:53:34.962 : 00:53:34.962
00:58:51.778 : 00:58:51.778
01:01:59.716 : 01:01:59.716
01:06:32.447 : 01:06:32.447
01:12:23.422 : 01:12:23.422
01:16:06.353 : 01:16:06.353
01:22:24.565 : 01:22:24.565
01:29:34.494 : 01:29:34.494

x264 Log

x264 [info]: started at Mon May 13 12:11:31 2013
x264 [info]: frame I:1000 Avg QP:15.37 size: 94836
x264 [info]: frame P:25354 Avg QP:18.71 size: 36944
x264 [info]: frame B:103318 Avg QP:19.75 size: 16640
x264 [info]: consecutive B-frames: 1.8% 1.8% 5.7% 11.5% 12.9% 51.6% 5.4% 1.4% 2.5% 0.8% 0.9% 1.8% 0.8% 0.7% 0.5%
x264 [info]: mb I I16..4: 8.2% 77.9% 13.9%
x264 [info]: mb P I16..4: 1.5% 13.6% 1.1% P16..4: 36.2% 36.7% 8.8% 0.0% 0.0% skip: 2.1%
x264 [info]: mb B I16..4: 0.1% 2.0% 0.1% B16..8: 39.1% 19.7% 2.4% direct: 7.0% skip:29.7% L0:45.0% L1:44.9% BI:10.1%
x264 [info]: 8x8 transform intra:85.3% inter:65.3%
x264 [info]: direct mvs spatial:100.0% temporal:0.0%
x264 [info]: coded y,uvDC,uvAC intra: 88.1% 72.2% 36.7% inter: 29.8% 25.1% 4.2%
x264 [info]: i16 v,h,dc,p: 12% 9% 2% 76%
x264 [info]: i8 v,h,dc,ddl,ddr,vr,hd,vl,hu: 10% 7% 5% 10% 14% 14% 13% 14% 14%
x264 [info]: i4 v,h,dc,ddl,ddr,vr,hd,vl,hu: 12% 8% 3% 9% 16% 15% 13% 11% 12%
x264 [info]: i8c dc,h,v,p: 37% 27% 20% 16%
x264 [info]: Weighted P-Frames: Y:97.2% UV:2.7%
x264 [info]: ref P L0: 45.1% 7.7% 20.1% 7.8% 6.2% 4.5% 3.9% 2.2% 2.1% 0.3% 0.0%
x264 [info]: ref B L0: 68.3% 14.4% 7.5% 3.7% 2.6% 2.0% 1.1% 0.3%
x264 [info]: ref B L1: 90.5% 9.5%
x264 [info]: kb/s:4068.78
Скриншоты:
             

Thx & source

За исходник спасибо: - BLUEBIRD
Other forum [Profile] [PM]
Similar theme
Forum Topic Author Torrent Replies Last Post
./templates/default/images/folder_dl.gif Техническая и научно-популярная литература Библиотека Руководителя Начальной Военной Подготовки - Брысин П.М. - Учебно-материальная база начальной военной подготовки в школе (2-е издание, исправленное) [1989, DjVu, RUS] Omen
1 | 0

0 | 639

0

2015-08-03 15:25
Omen Latest
./templates/default/images/folder_dl.gif Разножанровые коллекции книг и библиотеки Библиотека Либрусек (lib.rus.ec) + MyHomeLib [FB2] (Новый формат. Официальная версия) (Дополняемая) DED
1 | 0

0 | 1179

1

2020-09-05 20:46
DED Latest
./templates/default/images/folder_sticky.gif Разножанровые коллекции книг и библиотеки Библиотека Либрусек (lib.rus.ec) + MyHomeLib [2009-2021, FB2] (Дополняемая) DED
3 | 0

6 | 1495

0

2021-04-10 20:36
DED Latest
./templates/default/images/folder_sticky.gif Разножанровые коллекции книг и библиотеки Библиотека Flibusta + MyHomeLib [2009-2021, FB2] (Дополняемая) DED
1 | 0

6 | 1282

0

2021-04-08 18:58
DED Latest
Display posts from previous:    
Reply to topic

The time now is: Today 18:58

All times are GMT + 3 Hours



You cannot post new topics in this forum
You cannot reply to topics in this forum
You cannot edit your posts in this forum
You cannot delete your posts in this forum
You cannot vote in polls in this forum
You cannot attach files in this forum
You cannot download files in this forum