Today is a free download without charge Download

О чём молчат девушки (Карен Оганесян) [2013, Россия, комедия, BDRip 720p] + Original Rus

Reply to topic
 
Author
Message

Omen ®

Longevity: 8 years 5 months

Posts: 181087

Торрент-статистика

Post 15-May-2013 13:19

[Quote]

О чём молчат девушки- Страна: Россия
Студия: Централ Партнершип
Жанр: комедия
Год выпуска: 2013
Продолжительность: 01:21:57-Перевод: Не требуется
Cубтитры: нет
Оригинальная аудиодорожка: русский-Режиссер: Карен Оганесян
В ролях: Юлия Пересильд, Олеся Судзиловская, Ольга Смирнова, Таисия Вилкова, Михаил Пореченков, Ольга Тумайкина, Виталий Хаев-Описание: Четыре подруги сбегают из Москвы на уикенд в солнечную Испанию, чтобы на пляже, в SPA и за коктейлями на террасе расслабиться и поболтать обо всем. Но бывают обстоятельства, в которых девушки начинают говорить о том, о чем они обычно молчат…- -Тип релиза: BDRip 720p
Контейнер: MKV-Видео: AVC; 1280x672; 1,905; 25,000 fps; 5217 kbps
Аудио: Russian (DTS, 6 ch, 1510 kbps, 48,0 КГц)

MediaInfo

Общее
Уникальный идентификатор : 207584871852435449646014362306833717860 (0x9C2B645EB7174ED5A95D9F1174F29A64)
Полное имя : F:О чём молчат девушки.2013.BDRip.720.by.Modepido.mkv
Формат : Matroska
Размер файла : 3,85 Гбайт
Продолжительность : 1 ч. 21 м.
Общий поток : 6728 Кбит/сек
Дата кодирования : UTC 2013-05-15 08:45:39
Программа кодирования : mkvmerge v5.8.0 ('No Sleep / Pillow') built on Sep 2 2012 15:37:04
Библиотека кодирования : libebml v1.2.3 + libmatroska v1.3.0
Видео
Идентификатор : 1
Формат : AVC
Формат/Информация : Advanced Video Codec
Профиль формата : [email protected]
Параметр CABAC формата : Да
Параметр ReFrames формата : 5 кадров
Идентификатор кодека : V_MPEG4/ISO/AVC
Продолжительность : 1 ч. 21 м.
Битрейт : 5217 Кбит/сек
Ширина : 1280 пикс.
Высота : 672 пикс.
Соотношение сторон : 1,905
Частота кадров : 25,000 кадр/сек
Цветовое пространство : YUV
Подвыборка цветности : 4:2:0
Битовая глубина : 8 бит
Тип развёртки : Прогрессивная
Бит/(Пиксели*Кадры) : 0.243
Размер потока : 2,91 Гбайт (76%)
Библиотека кодирования : x264 core 130 r2273 b3065e6
Настройки программы : cabac=1 / ref=5 / deblock=1:-1:-1 / analyse=0x1:0x111 / me=umh / subme=9 / psy=1 / psy_rd=1.00:0.15 / mixed_ref=1 / me_range=24 / chroma_me=1 / trellis=1 / 8x8dct=0 / cqm=0 / deadzone=21,11 / fast_pskip=1 / chroma_qp_offset=-3 / threads=6 / lookahead_threads=1 / sliced_threads=0 / nr=0 / decimate=1 / interlaced=0 / bluray_compat=0 / constrained_intra=0 / bframes=8 / b_pyramid=2 / b_adapt=2 / b_bias=0 / direct=3 / weightb=1 / open_gop=0 / weightp=2 / keyint=250 / keyint_min=25 / scenecut=40 / intra_refresh=0 / rc_lookahead=50 / rc=2pass / mbtree=1 / bitrate=5217 / ratetol=1.0 / qcomp=0.60 / qpmin=0 / qpmax=69 / qpstep=4 / cplxblur=20.0 / qblur=0.5 / vbv_maxrate=50000 / vbv_bufsize=50000 / nal_hrd=none / ip_ratio=1.40 / aq=1:1.00
Язык : English
Аудио
Идентификатор : 2
Формат : DTS
Формат/Информация : Digital Theater Systems
Идентификатор кодека : A_DTS
Продолжительность : 1 ч. 21 м.
Вид битрейта : Постоянный
Битрейт : 1510 Кбит/сек
Каналы : 6 каналов
Расположение каналов : Front: L C R, Side: L R, LFE
Частота : 48,0 КГц
Битовая глубина : 24 бит
Метод сжатия : С потерями
Размер потока : 885 Мбайт (22%)
Язык : Russian
Меню
00:00:00.000 : en:00:00:00.000
00:05:36.720 : en:00:05:36.720
00:12:15.960 : en:00:12:15.960
00:19:38.080 : en:00:19:38.080
00:26:45.000 : en:00:26:45.000
00:31:31.360 : en:00:31:31.360
00:39:04.080 : en:00:39:04.080
00:45:38.280 : en:00:45:38.280
00:51:09.680 : en:00:51:09.680
00:59:47.000 : en:00:59:47.000
01:04:01.280 : en:01:04:01.280
01:14:38.960 : en:01:14:38.960

Скриншоты

Other forum [Profile] [PM]

Dracula

Longevity: 7 years 5 months

Posts: 11218

Торрент-статистика

Post 15-May-2013 13:56 (after 37 minutes)

Топик был перенесен из форума Зарубежное кино (HD Video) в форум Новинки (DVD, HD Video)


RUGUI
 

Dracula

Longevity: 7 years 5 months

Posts: 11218

Торрент-статистика

Post 02-Jan-2014 15:52 (after 7 months 18 days)

Топик был перенесен из форума Новинки (DVD, HD Video) в форум Зарубежное кино (HD Video)


kogesan
 
Similar theme
Forum Topic Author Torrent Replies Last Post
./templates/default/images/folder_dl.gif Фильмы 2001-2010 О чём говорят мужчины / O chyom govoryat muzhchiny (Дмитрий Дьяченко) [2010 г., комедия, ..., BDRip] Delia
1 | 0

1 | 2496

53

2010-11-09 14:11
Dracula Latest
./templates/default/images/folder_dl.gif Философия, Религия, Эзотерика Вадим Зеланд | О чем не сказала Тафти (2019) [FB2, EPUB] }{@R0N
1 | 0

0 | 1705

4

2019-01-20 20:09
}{@R0N Latest
Display posts from previous:    
Reply to topic

The time now is: Today 02:36

All times are GMT + 3 Hours



You cannot post new topics in this forum
You cannot reply to topics in this forum
You cannot edit your posts in this forum
You cannot delete your posts in this forum
You cannot vote in polls in this forum
You cannot attach files in this forum
You cannot download files in this forum