Today is a free download without charge Download

Отпущение грехов / Absolution (Энтони Пейдж / Anthony Page) [1978, Великобритания, Драма, HDTV 1080i] DVO (НТВ+) + VO + MVO + Original Eng

Reply to topic
 
Author
Message

Omen ®

Longevity: 8 years 5 months

Posts: 181087

Торрент-статистика

Post 15-May-2013 13:19

[Quote]

Отпущение грехов / Absolution
Страна: Великобритания
Студия: Bulldog
Жанр: Драма
Год выпуска: 1978
Продолжительность: 01:31:43
Перевод 1: Профессиональный (двухголосый закадровый) НТВ+
Перевод 2: Одноголосый закадровый
Перевод 3: Профессиональный (многоголосый закадровый)
Cубтитры: нет
Оригинальная аудиодорожка: английский
Режиссер: Энтони Пейдж / Anthony Page
В ролях: Ричард Бертон, Доминик Гард, Дэвид Брэдли (III), Билли Коннолли, Эндрю Кир, Уиллоби Грей, Престон Локвуд, Джеймс Оттауэй, Брук Уильямс, Джон Плауман, Робин Соанс, Тревор Мартин, Шарон Дуче, Брайан Гловер, Дэн Миден, Хилари Мейсон, Хильда Фенемор, Роберт Эдди, Кевин Харт, Филип Лик, Майкл Кромптон, Эндрю Боксер, Ричард Уиллис, Ричард Кейтс, Чарльз Ригби, Майкл Белл, Мартин Стрингер, Френсис Фрай, Джулиан Ферт, Тим Шорт
Описание: В католической школе, одному из учеников Бенджамину надоело быть хорошим парнем и он решает разыграть своего учителя Отца Годдарда. На исповеди, Бенджамин говорит Отцу Годдарду, что он случайно убил своего друга Блэки и похоронил его в лесу. Когда Годдард расследует дело, он находит, в месте мнимого захоронения мальчика пугало с головой из тыквы. Отец Годдард возмущен, но, в связи с печатью тайны исповеди, он знает, что не может не только исключить из школы Бенджамина, но и даже наказать его. Вскоре после этого, Бенджамин признается Годдарду, что то, что раньше было шуткой, он сделал сейчас на самом деле. В неверии, Годдард снова идет в лес, чтобы расследовать это дело. На этот раз, он обнаруживает мертвое тело Блэки. А вскоре таинственно исчезает ещё один мальчик...

Тип релиза: HDTV 1080i
Контейнер: MKV
Видео: Video: AVC 1920x1080 (16:9) 25.0fps Bit rate 5632Kbps
Аудио 1: AC3 48000Hz 2ch 192 Kbps DVO rus
Аудио 2: AC3 48000Hz 2ch 192 Kbps VO rus
Аудио 3: AC3 48000Hz 2ch 192 Kbps MVO rus
Аудио 4: AC3 48000Hz 2ch 192 Kbps eng

MediaInfo

General
Complete name : E:\torrent\Отпущение грехов.mkv
Format : Matroska
File size : 4.18 GiB
Duration : 1h 31mn
Overall bit rate : 6 530 Kbps
Encoded date : UTC 2013-05-15 05:26:47
Writing application : mkvmerge v5.7.0 ('The Whirlwind') built on Jul 8 2012 20:08:51
Writing library : libebml v1.2.3 + libmatroska v1.3.0
Video
ID : 1
Format : AVC
Format/Info : Advanced Video Codec
Format profile : [email protected]
Format settings, CABAC : Yes
Format settings, ReFrames : 3 frames
Muxing mode : Container [email protected]
Codec ID : V_MPEG4/ISO/AVC
Duration : 1h 31mn
Bit rate : 5 632 Kbps
Width : 1 920 pixels
Height : 1 080 pixels
Display aspect ratio : 16:9
Frame rate : 50.000 fps
Original frame rate : 25.000 fps
Standard : Component
Color space : YUV
Chroma subsampling : 4:2:0
Bit depth : 8 bits
Scan type : Interlaced
Scan order : Top Field First
Bits/(Pixel*Frame) : 0.054
Stream size : 3.61 GiB (86%)
Title : Отпущение грехов
Color primaries : BT.709-5, BT.1361, IEC 61966-2-4, SMPTE RP177
Transfer characteristics : BT.709-5, BT.1361
Matrix coefficients : BT.709-5, BT.1361, IEC 61966-2-4 709, SMPTE RP177
Audio #1
ID : 2
Format : AC-3
Format/Info : Audio Coding 3
Mode extension : CM (complete main)
Codec ID : A_AC3
Duration : 1h 31mn
Bit rate mode : Constant
Bit rate : 192 Kbps
Channel(s) : 2 channels
Channel positions : Front: L R
Sampling rate : 48.0 KHz
Bit depth : 16 bits
Stream size : 126 MiB (3%)
Title : Отпущение грехов_DVO_rus
Audio #2
ID : 3
Format : AC-3
Format/Info : Audio Coding 3
Mode extension : CM (complete main)
Codec ID : A_AC3
Duration : 1h 31mn
Bit rate mode : Constant
Bit rate : 192 Kbps
Channel(s) : 2 channels
Channel positions : Front: L R
Sampling rate : 48.0 KHz
Bit depth : 16 bits
Stream size : 126 MiB (3%)
Title : Отпущение грехов_VO_rus
Audio #3
ID : 4
Format : AC-3
Format/Info : Audio Coding 3
Mode extension : CM (complete main)
Codec ID : A_AC3
Duration : 1h 31mn
Bit rate mode : Constant
Bit rate : 192 Kbps
Channel(s) : 2 channels
Channel positions : Front: L R
Sampling rate : 48.0 KHz
Bit depth : 16 bits
Stream size : 126 MiB (3%)
Title : Отпущение грехов_MVO_rus
Audio #4
ID : 5
Format : AC-3
Format/Info : Audio Coding 3
Mode extension : CM (complete main)
Codec ID : A_AC3
Duration : 1h 31mn
Bit rate mode : Constant
Bit rate : 192 Kbps
Channel(s) : 2 channels
Channel positions : Front: L R
Sampling rate : 48.0 KHz
Bit depth : 16 bits
Stream size : 126 MiB (3%)
Title : Отпущение грехов_eng

Скриншот с названием фильма

Скриншоты

Other forum [Profile] [PM]
Display posts from previous:    
Reply to topic

The time now is: Today 11:58

All times are GMT + 3 Hours



You cannot post new topics in this forum
You cannot reply to topics in this forum
You cannot edit your posts in this forum
You cannot delete your posts in this forum
You cannot vote in polls in this forum
You cannot attach files in this forum
You cannot download files in this forum