Today is a free download without charge Download

Большой / Big (Пенни Маршалл) [1988, фэнтези, мелодрама, комедия, семейныйслова, BDRip 1080р]

Reply to topic
 
Author
Message

Delia ®

Gender:

Longevity: 10 years

Posts: 1821

Торрент-статистика

Post 15-May-2013 09:01

[Quote]

-Большой
Big«Have you ever had a really big secret?»--
Год выпуска: 1988
Страна: США
Жанр: фэнтези, мелодрама, комедия, семейный
Продолжительность: 02:10:25
Перевод: Авторский (одноголосый закадровый) Ю.Сербин
Субтитры: Russian (UTF-8), English (UTF-8)
Режиссер: Пенни Маршалл
Сценарий: Гэри Росс, Энн Спилберг
Продюсер: Джеймс Л. Брукс, Роберт Гринхат, Гэри Росс, ...
Оператор: Барри Зонненфельд
Композитор: Говард Шор, Марвин Хэмлиш, Билли Айдол
Художник: Санто Локосто, Спид Хопкинс, Том Уоррен, ...
Монтаж: Бэрри Малкин

В ролях: Том Хэнкс / Tom Hanks (Josh, $ 1 750 000 ), Элизабет Перкинс / Elizabeth Perkins (Susan), Роберт Лоджа / Robert Loggia (MacMillan), Джон Хёрд / John Heard (Paul), Дэвид Москоу / David Moscow (Young Josh), Джэред Раштон / Jared Rushton (Billy), Джон Ловиц / Jon Lovitz (Scotty Brennen), Мерседес Рул / Mercedes Ruehl (Mrs. Baskin), Джош Кларк / Josh Clark (Mr. Baskin), Кимберли М. Дэвис / Kimberlee M. Davis (Cynthia Benson)
Описание: 12-летний мальчишка очень хочет стать большим, и вот его желание сбывается. Он как бы вселяется в тело 30-летнего мужчины, каким он будет еще через много лет. Этот взрослый ребенок делает головокружительную карьеру в бизнесе игрушек — в большом игрушечном магазине, любимом детище бизнесмена МакМилана. Однако природа берет свое. Быть большим хорошо, но пропустить детство тоже не хочется.
Бюджет: $18 000 000
Сборы в США: $114 968 774
Сборы в мире: + $36 700 000 = $151 668 774
Зрители: США 28 млн , Испания 1.39 млн , Германия 1.32 млн
Премьера (мир): 3 июня 1988, ...
Релиз на DVD: 27 ноября 2008, «Двадцатый Век Фокс СНГ», ...
--
Рейтинг MPAA: Рекомендуется присутствие родителей
Рейтинг ВКИП: для детей старше 12 лет

Качество: BDRip
Формат: MKV
Видео кодек: H.264 (AVC)
Аудио кодеk: AC3
Видео: 1920x1040 (1.85:1), 23.976 fps, AVC, 7 958 Kbps
Аудио:
Аудио #1: AC3, 448 Kbps, 48.0 KHz, 6 ch RUS AVO
Аудио #2: AC3, 320 Kbps, 48.0 KHz, 6 ch ENG


--

МедиаИнфо

Код:
General
Unique ID                                : 251433074361402012808007257761232028561 (0xBD283FAA4AB37981828DEE8E75398391)
Complete name                            : Big (1988) [ Extended Cut] 1080p.F-HD.mkv
Format                                   : Matroska
Format version                           : Version 4 / Version 2
File size                                : 7.95 GiB
Duration                                 : 2h 10mn
Overall bit rate                         : 8 725 Kbps
Encoded date                             : UTC 2013-05-15 04:47:30
Writing application                      : mkvmerge v6.2.0 ('Promised Land') built on Apr 28 2013 12:22:01
Writing library                          : libebml v1.3.0 + libmatroska v1.4.0
Video
ID                                       : 1
Format                                   : AVC
Format/Info                              : Advanced Video Codec
Format profile                           : [email protected]
Format settings, CABAC                   : Yes
Format settings, ReFrames                : 4 frames
Codec ID                                 : V_MPEG4/ISO/AVC
Duration                                 : 2h 10mn
Bit rate                                 : 7 958 Kbps
Width                                    : 1 920 pixels
Height                                   : 1 040 pixels
Display aspect ratio                     : 1.85:1
Frame rate mode                          : Constant
Frame rate                               : 23.976 fps
Color space                              : YUV
Chroma subsampling                       : 4:2:0
Bit depth                                : 8 bits
Scan type                                : Progressive
Bits/(Pixel*Frame)                       : 0.166
Stream size                              : 7.09 GiB (89%)
Writing library                          : x264 core 132 r2310 76a5c3a
Encoding settings                        : cabac=1 / ref=4 / deblock=1:-2:-2 / analyse=0x3:0x113 / me=umh / subme=10 / psy=1 / psy_rd=0.85:0.05 / mixed_ref=1 / me_range=32 / chroma_me=1 / trellis=2 / 8x8dct=1 / cqm=0 / deadzone=21,11 / fast_pskip=0 / chroma_qp_offset=-3 / threads=6 / lookahead_threads=1 / sliced_threads=0 / nr=0 / decimate=1 / interlaced=0 / bluray_compat=0 / constrained_intra=0 / bframes=8 / b_pyramid=2 / b_adapt=2 / b_bias=0 / direct=3 / weightb=1 / open_gop=0 / weightp=2 / keyint=240 / keyint_min=23 / scenecut=40 / intra_refresh=0 / rc_lookahead=40 / rc=2pass / mbtree=0 / bitrate=7958 / ratetol=1.0 / qcomp=0.70 / qpmin=0 / qpmax=69 / qpstep=4 / cplxblur=20.0 / qblur=0.5 / vbv_maxrate=50000 / vbv_bufsize=62500 / nal_hrd=none / ip_ratio=1.40 / pb_ratio=1.20 / aq=1:0.80
Language                                 : English
Default                                  : Yes
Forced                                   : No
Color primaries                          : BT.709
Transfer characteristics                 : BT.709
Matrix coefficients                      : BT.709
Audio #1
ID                                       : 2
Format                                   : AC-3
Format/Info                              : Audio Coding 3
Mode extension                           : CM (complete main)
Format settings, Endianness              : Big
Codec ID                                 : A_AC3
Duration                                 : 2h 10mn
Bit rate mode                            : Constant
Bit rate                                 : 448 Kbps
Channel(s)                               : 6 channels
Channel positions                        : Front: L C R, Side: L R, LFE
Sampling rate                            : 48.0 KHz
Bit depth                                : 16 bits
Compression mode                         : Lossy
Stream size                              : 418 MiB (5%)
Title                                    : Ю. Сербин
Language                                 : Russian
Default                                  : Yes
Forced                                   : No
Audio #2
ID                                       : 3
Format                                   : AC-3
Format/Info                              : Audio Coding 3
Mode extension                           : CM (complete main)
Format settings, Endianness              : Big
Codec ID                                 : A_AC3
Duration                                 : 2h 10mn
Bit rate mode                            : Constant
Bit rate                                 : 320 Kbps
Channel(s)                               : 6 channels
Channel positions                        : Front: L C R, Side: L R, LFE
Sampling rate                            : 48.0 KHz
Bit depth                                : 16 bits
Compression mode                         : Lossy
Stream size                              : 299 MiB (4%)
Language                                 : English
Default                                  : No
Forced                                   : No
Text #1
ID                                       : 4
Format                                   : UTF-8
Codec ID                                 : S_TEXT/UTF8
Codec ID/Info                            : UTF-8 Plain Text
Language                                 : Russian
Default                                  : No
Forced                                   : No
Text #2
ID                                       : 5
Format                                   : UTF-8
Codec ID                                 : S_TEXT/UTF8
Codec ID/Info                            : UTF-8 Plain Text
Language                                 : English
Default                                  : No
Forced                                   : No
Menu
00:00:00.000                             : en:00:00:00.000
00:03:52.774                             : en:00:03:52.774
00:05:08.808                             : en:00:05:08.808
00:05:48.222                             : en:00:05:48.222
00:08:59.080                             : en:00:08:59.080
00:12:10.146                             : en:00:12:10.146
00:17:54.448                             : en:00:17:54.448
00:29:26.806                             : en:00:29:26.806
00:32:14.599                             : en:00:32:14.599
00:34:16.679                             : en:00:34:16.679
00:41:45.586                             : en:00:41:45.586
00:44:58.070                             : en:00:44:58.070
00:48:13.724                             : en:00:48:13.724
00:53:09.853                             : en:00:53:09.853
00:56:22.128                             : en:00:56:22.128
00:59:05.875                             : en:00:59:05.875
01:00:26.456                             : en:01:00:26.456
01:06:51.632                             : en:01:06:51.632
01:09:22.783                             : en:01:09:22.783
01:15:50.087                             : en:01:15:50.087
01:19:29.222                             : en:01:19:29.222
01:22:07.297                             : en:01:22:07.297
01:23:20.912                             : en:01:23:20.912
01:25:04.182                             : en:01:25:04.182
01:28:08.407                             : en:01:28:08.407
01:34:22.740                             : en:01:34:22.740
01:41:37.591                             : en:01:41:37.591
01:47:56.594                             : en:01:47:56.594
01:54:01.542                             : en:01:54:01.542
01:57:51.022                             : en:01:57:51.022
02:03:18.682                             : en:02:03:18.682
02:06:31.792                             : en:02:06:31.792

Знаете ли Вы, что...

★ На роль взрослого Джо помимо Тома Хэнкса претендовали Роберт Де Ниро, Робин Уильямс, Харрисон Форд.
★ Роль Джо первоначально была предложена Стиву Гуттенбергу, но актер отклонил предложение.
★ Игравший Джоша Дэвид Москоу одевал для съемок контактные линзы, чтобы цвет его глаз совпадал с цветом глаз Тома Хэнкса.
★ Кроме «Большого» в этот же период вышло еще целых четыре фильма на тематику «обмена/замены тел». Вот их оригинальные названия: 18 Again! (1988), Vice Versa (1988), Like Father Like Son (1987) and Dream a Little Dream (1989)
★ Пенни Маршал стала первой женщиной-режиссером, чей фильм собрал в прокате больше чем 100 миллионов долларов.
★ Фильм занял десятое место в списке десяти самых лучших фэнтезийных фильмов, составленным Американским Институтом Кино в июне 2008 года.
★ Первоначально концовка задумывалась такой: Джош сидит за школьной партой, и в класс заходит девочка-новичок, которая внешне похожа на Элизабет Перкинс, и зрителю становится понятно, что Сьюзан тоже помолодела. Но после тестовых просмотров от нее отказались.
★ Чтобы дать представление Тому Хэнксу о том, как ведёт себя 12-летний ребёнок, режиссёр предпринял следующее: каждая сцена Хэнкса предварительно проигрывалась с Дэвидом Москоу вместо него (Дэвид Москоу играл юного Джошуа).

Скриншоты

       
       

_________________
Человек – это канат, натянутый между животным и сверхчеловеком, – канат над пропастью.
В человеке ценно то, что он мост, а не цель. Фридрих Ницше
Other forum [Profile] [PM]
Similar theme
Forum Topic Author Torrent Replies Last Post
./templates/default/images/folder_dl.gif Медицина и Здоровье Игорь Борщенко | Большая книга упражнений для спины: комплекс «Умный позвоночник» (2016) [FB2] Omen
1 | 0

0 | 2472

11

2016-08-23 01:01
Omen Latest
./templates/default/images/folder_dl.gif Домоводство, Сад, Огород, Хобби Галина Кизима | Большая энциклопедия садовода-огородника от А до Я (2017) [FB2] }{@R0N
1 | 0

0 | 2771

25

2017-02-16 19:40
}{@R0N Latest
./templates/default/images/folder_dl.gif Фантастика, фэнтези, ужасы, мистика Мария Стрелова | Метро 2033: Нас больше нет (2018) [FB2] }{@R0N
1 | 0

0 | 689

1

2018-08-05 12:54
}{@R0N Latest
Display posts from previous:    
Reply to topic

The time now is: Today 22:48

All times are GMT + 3 Hours



You cannot post new topics in this forum
You cannot reply to topics in this forum
You cannot edit your posts in this forum
You cannot delete your posts in this forum
You cannot vote in polls in this forum
You cannot attach files in this forum
You cannot download files in this forum