Today is a free download without charge Download

Укрощение строптивых (Игорь Каленов) [2009, комедия, BDRip 1080p]

Reply to topic
 
Author
Message

Omen ®

Longevity: 8 years 10 months

Posts: 181086

Торрент-статистика

Post 15-May-2013 05:11

[Quote]

Укрощение строптивых
Страна: Россия
Студия: Никола Фильм, Агентство "Приор"
Жанр: комедия
Год выпуска: 2009
Продолжительность: 01:37:59
Субтитры: нет
Навигация по главам: есть
Режиссер: Игорь Каленов
В ролях: Анна Семенович, Игорь Лифанов, Юлия Галкина, Андрей Федорцов, Андрей Носков, Юрий Кузнецов, Михаил Богдасаров, Чарли, Александр Тютрюмов, Зоя Буряк
Описание: Чумовая блондинка с неотделимыми атрибутами: чихуахуа в сумке и богатым бойфрендом под каблуком, успешный бизнесмен «Мурзик» — владелец частного самолёта в сопровождении подружки-модели летят в Ниццу, а попадают в Тайгу. Тайга — это не лазурный берег с яхтами и закрытыми вечеринками, не жаркое сафари на джипах и плясками с аборигенами. Выращенным в тепличных условиях яппи и их капризным подружкам будет устроена проверка суровым русским «отдыхом». Бриллиантами и коктейльными платьями здесь никого не покоришь, в ход пойдут «защитная вуаль» от комаров и брюки строгого покроя, а одна из строптивых красавиц останется в лесу наедине с брутальным и немного чокнутым мужиком…

Релиз: fanatus
Качество видео: BDRip 1080p
Исходник: Blu-Ray 1080p
Контейнер: MKV
Видео: MPEG-4 AVC, 13000 kbps , 1916x812 (2.35:1), 23.976 fps, 0.349 bit/pixel
Аудио: DTS, 6 ch, 48 kHz, 1510 kbps

MediaInfo

General
Unique ID : 242847284913299579407739925510284124451 (0xB6B2AF901D5EC848A1BE7251E7982123)
Complete name : D:\Ukroshhenie.stroptivyh.2009.x264.BDRip.1080p.fanatus.mkv
Format : Matroska
Format version : Version 2
File size : 9.93 GiB
Duration : 1h 37mn
Overall bit rate : 14.5 Mbps
Movie name : Ukroshchenie stroptivykh (2009) - fanatus
Encoded date : UTC 2013-05-14 05:41:19
Writing application : mkvmerge v3.4.0 ('Rapunzel') сборка от May 15 2010 09:38:20
Writing library : libebml v0.8.0 + libmatroska v0.9.0
Video
ID : 1
Format : AVC
Format/Info : Advanced Video Codec
Format profile : [email protected]
Format settings, CABAC : Yes
Format settings, ReFrames : 5 frames
Codec ID : V_MPEG4/ISO/AVC
Duration : 1h 38mn
Bit rate : 13.0 Mbps
Width : 1 916 pixels
Height : 812 pixels
Display aspect ratio : 2.35:1
Frame rate : 23.976 fps
Color space : YUV
Chroma subsampling : 4:2:0
Bit depth : 8 bits
Scan type : Progressive
Bits/(Pixel*Frame) : 0.349
Stream size : 8.70 GiB (88%)
Title : Ukroshchenie stroptivykh (2009)
Writing library : x264 core 132 r2309 3b1f1f7
Encoding settings : cabac=1 / ref=5 / deblock=1:-3:-3 / analyse=0x3:0x113 / me=tesa / subme=11 / psy=1 / psy_rd=0.90:0.05 / mixed_ref=1 / me_range=48 / chroma_me=1 / trellis=2 / 8x8dct=1 / cqm=0 / deadzone=21,11 / fast_pskip=0 / chroma_qp_offset=-3 / threads=16 / lookahead_threads=2 / sliced_threads=0 / nr=0 / decimate=0 / interlaced=0 / bluray_compat=0 / constrained_intra=0 / bframes=9 / b_pyramid=2 / b_adapt=2 / b_bias=0 / direct=3 / weightb=1 / open_gop=0 / weightp=2 / keyint=240 / keyint_min=23 / scenecut=40 / intra_refresh=0 / rc_lookahead=240 / rc=2pass / mbtree=0 / bitrate=13000 / ratetol=1.0 / qcomp=0.65 / qpmin=0 / qpmax=69 / qpstep=4 / cplxblur=20.0 / qblur=0.5 / vbv_maxrate=50000 / vbv_bufsize=62500 / nal_hrd=none / ip_ratio=1.40 / pb_ratio=1.30 / aq=1:0.85
Language : Russian
Default : Yes
Forced : No
Color primaries : BT.709-5, BT.1361, IEC 61966-2-4, SMPTE RP177
Transfer characteristics : BT.709-5, BT.1361
Matrix coefficients : BT.709-5, BT.1361, IEC 61966-2-4 709, SMPTE RP177
Audio
ID : 2
Format : DTS
Format/Info : Digital Theater Systems
Codec ID : A_DTS
Duration : 1h 37mn
Bit rate mode : Constant
Bit rate : 1 510 Kbps
Channel(s) : 6 channels
Channel positions : Front: L C R, Side: L R, LFE
Sampling rate : 48.0 KHz
Bit depth : 16 bits
Compression mode : Lossy
Stream size : 1.03 GiB (10%)
Title : Original
Language : Russian
Default : Yes
Forced : No
Menu
00:00:00.000 : en:Chapter 01
00:07:31.200 : en:Chapter 02
00:13:28.307 : en:Chapter 03
00:19:50.147 : en:Chapter 04
00:25:57.138 : en:Chapter 05
00:32:12.639 : en:Chapter 06
00:39:22.526 : en:Chapter 07
00:45:41.071 : en:Chapter 08
00:55:17.105 : en:Chapter 09
01:00:41.846 : en:Chapter 10
01:05:05.902 : en:Chapter 11
01:10:44.073 : en:Chapter 12
01:15:12.925 : en:Chapter 13
01:22:15.472 : en:Chapter 14
01:28:56.289 : en:Chapter 15
01:35:47.032 : en:Chapter 16
01:37:59.915 : en:Chapter 17

x264 [info]

---[NoImage] raw [info]: 1916x812p 1:1 @ 24000/1001 fps (cfr)
---[NoImage] x264 [info]: using SAR=1/1
---[NoImage] x264 [info]: using cpu capabilities: MMX2 SSE2Fast SSSE3 SSE4.2 AVX
---[NoImage] x264 [info]: profile High, level 4.1
---[NoImage]
---[NoImage] x264 [info]: frame I:950 Avg QP:14.67 size:267444
---[NoImage] x264 [info]: frame P:37472 Avg QP:17.16 size:121365
---[NoImage] x264 [info]: frame B:102557 Avg QP:18.87 size: 46321
---[NoImage] x264 [info]: consecutive B-frames: 4.5% 6.2% 12.3% 27.0% 17.8% 28.7% 2.3% 0.3% 0.6% 0.3%
---[NoImage] x264 [info]: mb I I16..4: 6.8% 76.5% 16.6%
---[NoImage] x264 [info]: mb P I16..4: 1.4% 21.4% 1.6% P16..4: 26.4% 32.8% 13.6% 0.0% 0.0% skip: 2.9%
---[NoImage] x264 [info]: mb B I16..4: 0.3% 2.8% 0.2% B16..8: 32.9% 27.5% 5.7% direct:10.2% skip:20.3% L0:37.5% L1:40.8% BI:21.7%
---[NoImage] x264 [info]: 8x8 transform intra:86.2% inter:60.8%
---[NoImage] x264 [info]: direct mvs spatial:99.1% temporal:0.9%
---[NoImage] x264 [info]: coded y,uvDC,uvAC intra: 90.3% 91.7% 81.3% inter: 45.4% 43.9% 18.5%
---[NoImage] x264 [info]: i16 v,h,dc,p: 55% 12% 6% 27%
---[NoImage] x264 [info]: i8 v,h,dc,ddl,ddr,vr,hd,vl,hu: 11% 10% 9% 9% 12% 12% 12% 12% 14%
---[NoImage] x264 [info]: i4 v,h,dc,ddl,ddr,vr,hd,vl,hu: 15% 11% 10% 7% 13% 12% 12% 9% 11%
---[NoImage] x264 [info]: i8c dc,h,v,p: 45% 20% 18% 16%
---[NoImage] x264 [info]: Weighted P-Frames: Y:1.5% UV:0.8%
---[NoImage] x264 [info]: ref P L0: 50.7% 14.8% 20.7% 6.3% 6.6% 0.8% 0.0%
---[NoImage] x264 [info]: ref B L0: 83.5% 12.1% 3.3% 1.2%
---[NoImage] x264 [info]: ref B L1: 95.8% 4.2%
---[NoImage] x264 [info]: kb/s:12996.52
---[NoImage] encoded 140979 frames, 1.59 fps, 12996.52 kb/s

Скриншот c названием фильма

Other forum [Profile] [PM]

Dracula

Longevity: 7 years 11 months

Posts: 11002

Торрент-статистика

Post 15-May-2013 08:58 (after 3 hours)

Топик был перенесен из форума Зарубежное кино (HD Video) в форум Наше кино (HD Video)


RUGUI
 
Display posts from previous:    
Reply to topic

The time now is: Today 15:03

All times are GMT + 3 Hours



You cannot post new topics in this forum
You cannot reply to topics in this forum
You cannot edit your posts in this forum
You cannot delete your posts in this forum
You cannot vote in polls in this forum
You cannot attach files in this forum
You cannot download files in this forum