Today is a free download without charge Download

Рассвет Зулусов / Zulu Dawn (Дуглас Хикокс / Douglas Hickox) [1979, США, ЮАР, Нидерланды., приключения, драма, история, военный ., BDRip 720p] MVO + Original Eng

Reply to topic
 
Author
Message

Omen ®

Longevity: 8 years 5 months

Posts: 181087

Торрент-статистика

Post 15-May-2013 01:08

[Quote]

Рассвет Зулусов / Zulu Dawn
Страна: США, ЮАР , Нидерланды.
Студия: Zulu Dawn NV , Lamitas , Samarkand.
Жанр: приключения , драма , история , военный .
Год выпуска: 1979
Продолжительность: 01:52:46
Перевод: Профессиональный (многоголосый закадровый)
Cубтитры: нет
Оригинальная аудиодорожка: английский
Режиссер: Дуглас Хикокс / Douglas Hickox
В ролях: Берт Ланкастер, Саймон Уорд, Денхолм Эллиот, Питер Воэн, Джеймс Фолкнер, Кристофер Кейзнов, Боб Хоскинс, Дэвид Брэдли, Пол Копли, Дональд Пикеринг
Описание: 11 декабря 1878 Британская империя предъявила королю зулусов Кечвайо ультиматум, требуя реорганизовать знаменитую зулусскую систему армейского призыва и принять у себя британского резидента. Кечвайо отказался, и Британия объявила войну. Лорд Челмсфорд, главнокомандующий британских войск в Южной Африке, выдвинулся из Питермарицбурга в авангардный лагерь в Хелпмекаре, пройдя мимо Грейтауна. 9 января 1879 года британские отряды прошли перевал Роркс-Дрифт и 11 января начали переправляться через Баффало-Ривер, оказавшись в Зулуленде.
Британцы встали лагерем у Изандлваны.
Встав возле Изандлваны, Челмсфорд разделил свои войска и отправился на поиски зулусов. Он оставил в лагере 1-й батальон 24 пехотного полка.
Тип релиза: BDRip 720p
Контейнер: MKV
Видео: AVC , 1280x544 , 2.35 , 4 906 Kbps , 25 fps .
Аудио: Русский , AC-3 , 2 channels , 48.0 KHz , 192 Kbps
Аудио 2: Английский , AC-3 , 2 channels , 48.0 KHz , 640 Kbps

MediaInfo

Complete name Zulu Dawn.1979.720p.BluRay.mkv
Format : Matroska
Format version : Version 2
File size : 4.52 GiB
Duration : 1h 52mn
Overall bit rate : 5 739 Kbps
Encoded date : UTC 2013-05-12 08:04:52
Writing application : mkvmerge v4.0.0 ('The Stars were mine') сборка от Jun 18 2010 16:54:49
Writing library : libebml v1.0.0 + libmatroska v1.0.0
Video
ID : 1
Format : AVC
Format/Info : Advanced Video Codec
Format profile : [email protected]
Format settings, CABAC : Yes
Format settings, ReFrames : 5 frames
Codec ID : V_MPEG4/ISO/AVC
Duration : 1h 52mn
Bit rate : 4 906 Kbps
Width : 1 280 pixels
Height : 544 pixels
Display aspect ratio : 2.35:1
Frame rate mode : Constant
Frame rate : 25.000 fps
Color space : YUV
Chroma subsampling : 4:2:0
Bit depth : 8 bits
Scan type : Progressive
Bits/(Pixel*Frame) : 0.282
Stream size : 3.78 GiB (84%)
Writing library : x264 core 129 r2245 bc13772
Encoding settings : cabac=1 / ref=5 / deblock=1:0:0 / analyse=0x3:0x133 / me=umh / subme=7 / psy=1 / psy_rd=1.00:0.00 / mixed_ref=1 / me_range=16 / chroma_me=1 / trellis=1 / 8x8dct=1 / cqm=0 / deadzone=21,11 / fast_pskip=0 / chroma_qp_offset=-2 / threads=18 / lookahead_threads=3 / sliced_threads=0 / nr=0 / decimate=1 / interlaced=0 / bluray_compat=0 / constrained_intra=0 / bframes=3 / b_pyramid=2 / b_adapt=2 / b_bias=0 / direct=3 / weightb=1 / open_gop=0 / weightp=2 / keyint=250 / keyint_min=25 / scenecut=40 / intra_refresh=0 / rc_lookahead=50 / rc=2pass / mbtree=1 / bitrate=4906 / ratetol=1.0 / qcomp=0.60 / qpmin=0 / qpmax=69 / qpstep=4 / cplxblur=20.0 / qblur=0.5 / ip_ratio=1.40 / aq=1:1.00
Language : English
Default : Yes
Forced : No
Audio #1
ID : 2
Format : AC-3
Format/Info : Audio Coding 3
Mode extension : CM (complete main)
Format settings, Endianness : Big
Codec ID : A_AC3
Duration : 1h 52mn
Bit rate mode : Constant
Bit rate : 192 Kbps
Channel(s) : 2 channels
Channel positions : Front: L R
Sampling rate : 48.0 KHz
Bit depth : 16 bits
Compression mode : Lossy
Stream size : 155 MiB (3%)
Default : No
Forced : No
Audio #2
ID : 3
Format : AC-3
Format/Info : Audio Coding 3
Mode extension : CM (complete main)
Format settings, Endianness : Big
Codec ID : A_AC3
Duration : 1h 52mn
Bit rate mode : Constant
Bit rate : 640 Kbps
Channel(s) : 2 channels
Channel positions : Front: L R
Sampling rate : 48.0 KHz
Bit depth : 16 bits
Compression mode : Lossy
Stream size : 516 MiB (11%)
Language : English
Default : No
Forced : No
Menu
00:00:00.000 : en:00:00:00.000
00:06:27.400 : en:00:06:27.400
00:13:36.320 : en:00:13:36.320
00:20:04.240 : en:00:20:04.240
00:28:37.440 : en:00:28:37.440
00:38:58.200 : en:00:38:58.200
00:46:55.120 : en:00:46:55.120
00:56:02.560 : en:00:56:02.560
01:05:08.080 : en:01:05:08.080
01:11:17.040 : en:01:11:17.040
01:22:46.680 : en:01:22:46.680
01:31:42.360 : en:01:31:42.360
01:49:37.560 : en:01:49:37.560

Скриншоты

Other forum [Profile] [PM]
Display posts from previous:    
Reply to topic

The time now is: Today 18:50

All times are GMT + 3 Hours



You cannot post new topics in this forum
You cannot reply to topics in this forum
You cannot edit your posts in this forum
You cannot delete your posts in this forum
You cannot vote in polls in this forum
You cannot attach files in this forum
You cannot download files in this forum