Today is a free download without charge Download

Nefas Terra - Яд [2013, Black Metal, HDCam]

Reply to topic
 
Author
Message

Omen ®

Longevity: 8 years 3 months

Posts: 181087

Торрент-статистика

Post 15-May-2013 01:08

[Quote]

Nefas Terra - Яд
Жанр: Black Metal
Продолжительность: 00:04:13
Год выпуска: 2013
Описание: Видеоклип подольской Black Metal группы Nefas Terra на песню "Яд" с EP "Жизнь в темноте".
Качество: HDCam
Контейнер: MP4
Видео кодек: H.264
Аудио кодек: AAC
Видео: MPEG4 Video (H264), 1920x1080, 25fps, 14918kbps
Аудио: AAC, 48000Hz, stereo, 317kbps

MediaInfo

GeneralComplete name : Nefas Terra - Яд.mp4Format : MPEG-4Format profile : Base Media / Version 2Codec ID : mp42File size : 460 MiBDuration : 4mn 12sOverall bit rate mode : VariableOverall bit rate : 15.3 MbpsEncoded date : UTC 2013-05-07 08:42:03Tagged date : UTC 2013-05-07 08:42:03©TIM : 00:10:41:16©TSC : 25©TSZ : 1
VideoID : 1Format : AVCFormat/Info : Advanced Video CodecFormat profile : [email protected] settings, CABAC : YesFormat settings, ReFrames : 3 framesCodec ID : avc1Codec ID/Info : Advanced Video CodingDuration : 4mn 12sBit rate : 14.9 MbpsWidth : 1 920 pixelsHeight : 1 080 pixelsDisplay aspect ratio : 16:9Frame rate mode : ConstantFrame rate : 25.000 fpsStandard : PALColor space : YUVChroma subsampling : 4:2:0Bit depth : 8 bitsScan type : ProgressiveBits/(Pixel*Frame) : 0.288Stream size : 450 MiB (98%)Language : EnglishEncoded date : UTC 2013-05-07 08:42:03Tagged date : UTC 2013-05-07 08:42:03
AudioID : 2Format : AACFormat/Info : Advanced Audio CodecFormat profile : LCCodec ID : 40Duration : 4mn 12sSource duration : 4mn 12sBit rate mode : VariableBit rate : 317 KbpsMaximum bit rate : 396 KbpsChannel(s) : 2 channelsChannel positions : Front: L RSampling rate : 48.0 KHzCompression mode : LossyStream size : 9.57 MiB (2%)Source stream size : 9.57 MiB (2%)Language : EnglishEncoded date : UTC 2013-05-07 08:42:03Tagged date : UTC 2013-05-07 08:42:03

Скриншоты

Other forum [Profile] [PM]
Display posts from previous:    
Reply to topic

The time now is: Today 07:55

All times are GMT + 3 Hours



You cannot post new topics in this forum
You cannot reply to topics in this forum
You cannot edit your posts in this forum
You cannot delete your posts in this forum
You cannot vote in polls in this forum
You cannot attach files in this forum
You cannot download files in this forum