Today is a free download without charge Download

NG: Самый опасный наркотик / The World`s Most Dangerous Drug (2006) HDTVRip [1080i]

Reply to topic
 
Author
Message

UndegraundMen ®

Longevity: 8 years 11 months

Posts: 25145

Торрент-статистика

Post 15-May-2013 00:06

[Quote]

NG: Самый опасный наркотик / The World`s Most Dangerous Drug (2006) HDTVRip- Русское название: NG: Самый опасный наркотик
Оригинальное название: The World`s Most Dangerous Drug
Режиссер / Телекомпания: David Murdock
Год выпуска: 2006
Жанр: Документальный
Описание:
У него множество названий: кристалл, лед, тина, и заводка, большинство просто называют его MET – сокращенно от метамфетамин. Он сильнее и дешевле чем кокаин, действие стандартной дозы продолжается от 6 до 12 часов, кроме того его можно изготовить прямо на заднем дворе, если вы умеете готовить шоколадное печенье, то сможете изготовить и метамфетамин. Для изучения этой животрепещущей проблемы мы заглянем в мир МЕТА с мексиканскими наркодилерами, покоряющими север и азиатской нацией, переживающей кризис. Мы выясним какова география его распространения и кто становится его жертвами. Мы узнаем как мет действует на организм человека, на его сознание и душу. Исследования действия этого наркотика, прозванного "кокаином бедняка", выявили шокирующие факты. Вместе мы раскроем все секреты самого опасного в мире наркотика.
Продолжительность: 00:47:28
Перевод: Одноголосый закадровый, профессиональный
Качество видео: HDTVRip
Видео: AVC, 1920x1080 (16:9), 25.000 fps, 7 665 Kbps (0.148 bit/pixel)
Аудио: MP2, 48.0 KHz, 2 ch, 192 Kbps, CBR (Russian)

MI

Общее
Идентификатор : 8400 (0x20D0)
Полное имя : E:\Doc.filmi\всякое\Samyi.opasnyi.narkotik.2006.HDTVRip.[/*spam*/].ts
Формат : MPEG-TS
Размер файла : 2,74 Гбайт
Продолжительность : 47 м.
Режим общего битрейта : Переменный
Общий поток : 8267 Кбит/сек
Видео
Идентификатор : 1400 (0x578)
Идентификатор меню : 40 (0x28)
Формат : AVC
Формат/Информация : Advanced Video Codec
Профиль формата : [url=mailto:[email protected]][email protected][/url]
Параметр CABAC формата : Да
Параметр ReFrames формата : 4 кадра
Идентификатор кодека : 27
Продолжительность : 47 м.
Битрейт : 7665 Кбит/сек
Ширина : 1920 пикселей
Высота : 1080 пикселей
Соотношение сторон : 16:9
Частота кадров : 25,000 кадров/сек
Стандарт вещания : Component
Цветовое пространство : YUV
Субдискретизация насыщенности : 4:2:0
Битовая глубина : 8 бит
Тип развёртки : Чересстрочная
Порядок развёртки : Верхнее поле первое
Бит/(Пиксели*Кадры) : 0.148
Размер потока : 2,54 Гбайт (93%)
Основные цвета : BT.709
Характеристики трансфера : BT.709
Коэффициенты матрицы : BT.709
Аудио
Идентификатор : 1410 (0x582)
Идентификатор меню : 40 (0x28)
Формат : MPEG Audio
Версия формата : Version 1
Профиль формата : Layer 2
Идентификатор кодека : 4
Продолжительность : 47 м.
Вид битрейта : Постоянный
Битрейт : 192 Кбит/сек
Каналы : 2 канала
Частота : 48,0 КГц
Метод сжатия : С потерями
Задержка видео : -1 с. 212 мс.
Размер потока : 65,2 Мбайт (2%)
Язык : Russian
Other forum [Profile] [PM]
Display posts from previous:    
Reply to topic

The time now is: Today 23:19

All times are GMT + 3 Hours



You cannot post new topics in this forum
You cannot reply to topics in this forum
You cannot edit your posts in this forum
You cannot delete your posts in this forum
You cannot vote in polls in this forum
You cannot attach files in this forum
You cannot download files in this forum