Today is a free download without charge Download

Как это работает? + Как делают спортинвентарь? / How it\'s made? + How sports are made? (2001-2013) [Сезон 1-13 из 13] TVRip [H.264]

Reply to topic
 
Author
Message

UndegraundMen ®

Longevity: 7 years 7 months

Posts: 25145

Торрент-статистика

Post 15-May-2013 00:05

[Quote]

Как это работает? + Как делают спортинвентарь? / How it's made? + How sports are made? (2001-2013) [Сезон 1-13 из 13] TVRip [H.264]]- Русское название: Как это работает? + Как делают спортинвентарь?
Оригинальное название: How it's made? + How sports are made?
Год выпуска: 2001-2013
Жанр: Семейный, Научно-популярный
Описание фильма:
Вам интересно, как делают привычные, обыденные вещи? Discovery Channel представляет новые серии фильма "Как это работает", который приглашает зрителей за кулисы производства самых обычных предметов начиная с хоккейных шайб и ручных пил и кончая буровыми долотами и замороженной картошкой фри. Передача " Как это работает" показывает, как делают эти обманчиво простые вещи. Мы каждый день пользуемся тысячами банальных предметов, но не очень просто понять, как на самом деле делают алюминиевые лестницы, шлемы пожарных, спички и блоки двигателей. Передача " Как это работает" запечатлела десятки конвейеров, на которых сырье превращается в готовые изделия прямо на глазах у зрителя. Удивительно, но большинство привычных и "простых" вещей делают на высокотехнологичном оборудовании на заводах по всему миру.
Продолжительность: (247+8 серий) x ~00:22:00
Перевод: Одноголосый закадровый (профессиональный)
Автор перевода: Discovery Channel

Дата мировой премьеры: 2001
Видеокодек: MPEG-4 AVC/H.264
Битрейт видео: ~1400-1700 kbps avg
Пропорции кадра: 4:3, 16:9
Размер кадра: 576x432 ... 720x480

Размер кадра посерийно

576х432 (Серия 67 )
640х352 (Серия 95,96)
608х400 (Серия 81-94, 97,98)
640х368 (Серия 74, 76, )
640х400 (Серия 63, 79 )
640х416 (Серия 75)
640х432 (Серия 62-65, 77,78, 99,100-106,109-130, 144-157 )
640х448 (Серия 107,108)
640х480 (Серия1-40, 53-60, 69-71)
640х464 (Серия 41-52)
656х368 (Серия 158-169)
672х372 (Серия 209-215, 228)
672х536 (Серия 66, 131-142)
672х712 (Серия 143)
688х384 (Серия 183,184, 186-195)
688х552 (Серия 170-182, 185)
704х400 (Серия 196)
704х564 (Серия 197-208, 216-227, 229)
712х476 (Серия 80)
712х480 (Серия 72)
712х528 (Серия 68 )
720х480 (Серия 72)
720х464 (Серия 73)
Качество видео: TVRip
Аудиокодек: AC3, 2 канала
Битрейт аудио: ~448 kbps avg

Отчёт MediaInfo 1 - 704х560

Общее
Уникальный идентификатор : 168348648403719580577546155723716462494 (0x7EA6C532C2870C1E037BA147C20E879E)
Полное имя : D:\How it's made\001 S01E01 (Алюминиевая фольга, Сноуборды, Контактные линзы, Хлеб).mkv
Формат : Matroska
Версия формата : Version 2
Размер файла : 313 Мбайт
Продолжительность : 21 м.
Режим общего битрейта : Переменный
Общий поток : 2035 Кбит/сек
Программа кодирования : Lavf51.12.1
Библиотека кодирования : Lavf51.12.1
Видео
Идентификатор : 1
Формат : AVC
Формат/Информация : Advanced Video Codec
Профиль формата : [url=mailto:[email protected]][email protected][/url]
Параметр CABAC формата : Нет
Параметр ReFrames формата : 1 кадр
Параметр GOP формата : M=1, N=12
Идентификатор кодека : V_MPEG4/ISO/AVC
Продолжительность : 21 м.
Вид битрейта : Переменный
Битрейт : 1547 Кбит/сек
Максимальный битрейт : 2358 Кбит/сек
Ширина : 704 пикселя
Высота : 560 пикселей
Соотношение сторон : 5:4
Режим частоты кадров : Постоянный
Частота кадров : 23,962 кадра/сек
Частота кадров в оригинале : 24,000 кадра/сек
Цветовое пространство : YUV
Субдискретизация насыщенности : 4:2:0
Битовая глубина : 8 бит
Тип развёртки : Прогрессивная
Бит/(Пиксели*Кадры) : 0.164
Размер потока : 238 Мбайт (76%)
Default : Да
Forced : Нет
Аудио
Идентификатор : 2
Формат : AC-3
Формат/Информация : Audio Coding 3
Расширение режима : CM (complete main)
Параметр Endianness формата : Big
Идентификатор кодека : A_AC3
Продолжительность : 21 м.
Вид битрейта : Постоянный
Битрейт : 448 Кбит/сек
Каналы : 2 канала
Расположение каналов : Front: L R
Частота : 48,0 КГц
Битовая глубина : 16 бит
Метод сжатия : С потерями
Размер потока : 69,0 Мбайт (22%)
Default : Да
Forced : Нет

Отчёт MediaInfo 2 - 640x480

Общее
Уникальный идентификатор : 168348648403719580577546155723716462494 (0x7EA6C532C2870C1E037BA147C20E879E)
Полное имя : D:\Done\How it's made- MKV\035 S03E09 (Надувные лодки, Кус-кус, Тесто для лепки, Плетеные изделия).mkv
Формат : Matroska
Версия формата : Version 2
Размер файла : 304 Мбайт
Продолжительность : 21 м.
Режим общего битрейта : Переменный
Общий поток : 1947 Кбит/сек
Программа кодирования : Lavf51.12.1
Библиотека кодирования : Lavf51.12.1
Видео
Идентификатор : 1
Формат : AVC
Формат/Информация : Advanced Video Codec
Профиль формата : [url=mailto:[email protected]][email protected][/url]
Параметр CABAC формата : Нет
Параметр ReFrames формата : 1 кадр
Параметр GOP формата : M=1, N=12
Идентификатор кодека : V_MPEG4/ISO/AVC
Продолжительность : 21 м.
Вид битрейта : Переменный
Битрейт : 1460 Кбит/сек
Максимальный битрейт : 2230 Кбит/сек
Ширина : 640 пикселей
Высота : 480 пикселей
Соотношение сторон : 4:3
Режим частоты кадров : Постоянный
Частота кадров : 23,962 кадра/сек
Частота кадров в оригинале : 24,000 кадра/сек
Цветовое пространство : YUV
Субдискретизация насыщенности : 4:2:0
Битовая глубина : 8 бит
Тип развёртки : Прогрессивная
Бит/(Пиксели*Кадры) : 0.198
Размер потока : 228 Мбайт (75%)
Default : Да
Forced : Нет
Аудио
Идентификатор : 2
Формат : AC-3
Формат/Информация : Audio Coding 3
Расширение режима : CM (complete main)
Параметр Endianness формата : Big
Идентификатор кодека : A_AC3
Продолжительность : 21 м.
Вид битрейта : Постоянный
Битрейт : 448 Кбит/сек
Каналы : 2 канала
Расположение каналов : Front: L R
Частота : 48,0 КГц
Битовая глубина : 16 бит
Метод сжатия : С потерями
Размер потока : 70,0 Мбайт (23%)
Default : Да
Forced : Нет

Отчёт mediaInfo 3 - 608x400

Общее
Уникальный идентификатор : 168348648403719580577546155723716462494 (0x7EA6C532C2870C1E037BA147C20E879E)
Полное имя : D:\Done\How it's made- MKV\084 S07E06 (Стеклянные формы для выпечки, Мыло, Стальные барабаны, Униформа для пожарных).mkv
Формат : Matroska
Версия формата : Version 2
Размер файла : 282 Мбайт
Продолжительность : 22 м.
Режим общего битрейта : Переменный
Общий поток : 1779 Кбит/сек
Программа кодирования : Lavf51.12.1
Библиотека кодирования : Lavf51.12.1
Видео
Идентификатор : 1
Формат : AVC
Формат/Информация : Advanced Video Codec
Профиль формата : [url=mailto:[email protected]][email protected][/url]
Параметр CABAC формата : Нет
Параметр ReFrames формата : 1 кадр
Параметр GOP формата : M=1, N=12
Идентификатор кодека : V_MPEG4/ISO/AVC
Продолжительность : 22 м.
Вид битрейта : Переменный
Битрейт : 1296 Кбит/сек
Максимальный битрейт : 1981 Кбит/сек
Ширина : 608 пикселей
Высота : 400 пикселей
Соотношение сторон : 3:2
Режим частоты кадров : Постоянный
Частота кадров : 23,962 кадра/сек
Частота кадров в оригинале : 24,000 кадра/сек
Цветовое пространство : YUV
Субдискретизация насыщенности : 4:2:0
Битовая глубина : 8 бит
Тип развёртки : Прогрессивная
Бит/(Пиксели*Кадры) : 0.222
Размер потока : 205 Мбайт (73%)
Default : Да
Forced : Нет
Аудио
Идентификатор : 2
Формат : AC-3
Формат/Информация : Audio Coding 3
Расширение режима : CM (complete main)
Параметр Endianness формата : Big
Идентификатор кодека : A_AC3
Продолжительность : 22 м.
Вид битрейта : Постоянный
Битрейт : 448 Кбит/сек
Каналы : 2 канала
Расположение каналов : Front: L R
Частота : 48,0 КГц
Битовая глубина : 16 бит
Метод сжатия : С потерями
Размер потока : 70,9 Мбайт (25%)
Default : Да
Forced : Нет

Отчёт MediaInfo 4 - 640x432

Общее
Уникальный идентификатор : 168348648403719580577546155723716462494 (0x7EA6C532C2870C1E037BA147C20E879E)
Полное имя : D:\Done\How it's made- MKV\149 S12E06 (Автомобильные детали из углеродного волокна, Сушилки для рук, Вторичная полиэстровая нить, Флис).mkv
Формат : Matroska
Версия формата : Version 2
Размер файла : 289 Мбайт
Продолжительность : 21 м.
Режим общего битрейта : Переменный
Общий поток : 1847 Кбит/сек
Программа кодирования : Lavf51.12.1
Библиотека кодирования : Lavf51.12.1
Видео
Идентификатор : 1
Формат : AVC
Формат/Информация : Advanced Video Codec
Профиль формата : [url=mailto:[email protected]][email protected][/url]
Параметр CABAC формата : Нет
Параметр ReFrames формата : 1 кадр
Параметр GOP формата : M=1, N=12
Идентификатор кодека : V_MPEG4/ISO/AVC
Продолжительность : 21 м.
Вид битрейта : Переменный
Битрейт : 1363 Кбит/сек
Максимальный битрейт : 2079 Кбит/сек
Ширина : 640 пикселей
Высота : 432 пикселя
Соотношение сторон : 3:2
Режим частоты кадров : Постоянный
Частота кадров : 23,962 кадра/сек
Частота кадров в оригинале : 24,000 кадра/сек
Цветовое пространство : YUV
Субдискретизация насыщенности : 4:2:0
Битовая глубина : 8 бит
Тип развёртки : Прогрессивная
Бит/(Пиксели*Кадры) : 0.206
Размер потока : 213 Мбайт (74%)
Default : Да
Forced : Нет
Аудио
Идентификатор : 2
Формат : AC-3
Формат/Информация : Audio Coding 3
Расширение режима : CM (complete main)
Параметр Endianness формата : Big
Идентификатор кодека : A_AC3
Продолжительность : 21 м.
Вид битрейта : Постоянный
Битрейт : 448 Кбит/сек
Каналы : 2 канала
Расположение каналов : Front: L R
Частота : 48,0 КГц
Битовая глубина : 16 бит
Метод сжатия : С потерями
Размер потока : 70,1 Мбайт (24%)
Default : Да
Forced : Нет
Скриншоты:
         
         

Дополнительные скриншоты:

         
         
Время раздачи: 24/7
Other forum [Profile] [PM]
Display posts from previous:    
Reply to topic

The time now is: Today 12:37

All times are GMT + 3 Hours



You cannot post new topics in this forum
You cannot reply to topics in this forum
You cannot edit your posts in this forum
You cannot delete your posts in this forum
You cannot vote in polls in this forum
You cannot attach files in this forum
You cannot download files in this forum