Today is a free download without charge Download

Исходный код / Source Code (Дункан Джонс) [2011 г., фантастика, боевик, триллер, BDRip 1080p]

Reply to topic
 
Author
Message

Theseus ®

Gender:

Longevity: 8 years 5 months

Posts: 2053

Торрент-статистика

Post 30-Jul-2011 15:31

[Quote]

-Исходный код / Source Code-
Год выпуска: 2011
Страна: США, Франция
Жанр: фантастика, боевик, триллер
Продолжительность: 01:32:53
Перевод: Профессиональный (полное дублирование)
Режиссер: Дункан Джонс -В ролях: Джейк Джилленхол, Мишель Монахэн, Вера Фармига, Джеффри Райт, Майкл Арден, Кэс Анвар, Расселл Питерс, Бренд Скафорд, Крэйг Томас, Гордон Мастен-Описание: Герой фильма — солдат, который оказывается в теле некоего человека, и вынужден постоянно переживать чудовищный взрыв поезда, пока не поймёт, кто его устроил. -Качество: BDRip 1080p
Формат: MKV
Видеокодек: H264
Аудиокодек: AC3/DTS
Видео: MPEG-4 AVC Video / 1920x1080 / 23.976 fps / H.264 / 16.8 mb/s
Аудио 1: 48 kHz, AC3 , 3/2 (L,C,R,l,r) + LFE ch, 448.00 kbps avg |Русский профессиональный(дублированный)|
Аудио 1: 48 kHz, DTS, 3/2 (L,C,R,l,r) + LFE ch, ~1510.00 kbps avg |Английский (оригинал)|
Субтитры: Русские, английские
Дополнительно: Сохранены оригинальные чаптеры- -

MediaInfo

Полное имя : Source.Code.2011.D.BDRip.1080p.UG.k236.mkv
Формат : Matroska
Версия формата : Version 2
Размер файла : 12,2 Гбайт
Продолжительность : 1 ч. 33 м.
Общий поток : 18,7 Мбит/сек
Название фильма : Исходный код / Source Code (2011)
Дата кодирования : UTC 2011-07-27 22:25:57
Программа кодирования : mkvmerge v4.9.1 ('Ich will') сборка от Jul 11 2011 23:53:15
Библиотека кодирования : libebml v1.2.1 + libmatroska v1.1.1
Видео
Идентификатор : 1
Формат : AVC
Формат/Информация : Advanced Video Codec
Профиль формата : [email protected]
Параметр CABAC формата : Да
Параметр ReFrames формата : 4 кадра
Идентификатор кодека : V_MPEG4/ISO/AVC
Продолжительность : 1 ч. 33 м.
Битрейт : 16,8 Мбит/сек
Ширина : 1920 пикс.
Высота : 1080 пикс.
Соотношение сторон : 16:9
Частота кадров : 23,976 кадр/сек
Цветовое пространство : YUV
Подвыборка цветности : 4:2:0
Битовая глубина : 8 бит
Тип развёртки : Прогрессивная
Бит/(Пиксели*Кадры) : 0.338
Размер потока : 10,7 Гбайт (88%)
Заголовок : Source.Code.2011.1080p.BluRay.DTS.x264-HiDt
Библиотека кодирования : x264 core 115 r1995 c1e60b9
Настройки программы : cabac=1 / ref=4 / deblock=1:-2:-3 / analyse=0x3:0x113 / me=tesa / subme=10 / psy=1 / psy_rd=1.00:0.00 / mixed_ref=1 / me_range=32 / chroma_me=1 / trellis=2 / 8x8dct=1 / cqm=0 / deadzone=21,11 / fast_pskip=0 / chroma_qp_offset=-2 / threads=12 / sliced_threads=0 / nr=0 / decimate=1 / interlaced=0 / bluray_compat=0 / constrained_intra=0 / bframes=6 / b_pyramid=2 / b_adapt=2 / b_bias=0 / direct=3 / weightb=1 / open_gop=0 / weightp=2 / keyint=250 / keyint_min=23 / scenecut=40 / intra_refresh=0 / rc_lookahead=80 / rc=2pass / mbtree=1 / bitrate=16780 / ratetol=1.0 / qcomp=0.60 / qpmin=0 / qpmax=69 / qpstep=4 / cplxblur=20.0 / qblur=0.5 / vbv_maxrate=48000 / vbv_bufsize=38000 / nal_hrd=none / ip_ratio=1.40 / aq=1:0.90
Язык : English
Аудио #1
Идентификатор : 2
Формат : AC-3
Формат/Информация : Audio Coding 3
Расширение режима : CM (complete main)
Идентификатор кодека : A_AC3
Продолжительность : 1 ч. 33 м.
Вид битрейта : Постоянный
Битрейт : 448 Кбит/сек
Каналы : 6 каналов
Расположение каналов : Front: L C R, Side: L R, LFE
Частота : 48,0 КГц
Битовая глубина : 16 бит
Метод сжатия : С потерями
Размер потока : 299 Мбайт (2%)
Заголовок : AC3 5.1 @ 448 kb/s [Russian DUB]
Язык : Russian
Аудио #2
Идентификатор : 3
Формат : DTS
Формат/Информация : Digital Theater Systems
Идентификатор кодека : A_DTS
Продолжительность : 1 ч. 33 м.
Вид битрейта : Постоянный
Битрейт : 1510 Кбит/сек
Каналы : 6 каналов
Расположение каналов : Front: L C R, Side: L R, LFE
Частота : 48,0 КГц
Битовая глубина : 24 бит
Метод сжатия : С потерями
Размер потока : 1007 Мбайт (8%)
Заголовок : DTS 5.1 @ 1510 kb/s [English]
Язык : English
Текст #1
Идентификатор : 4
Формат : UTF-8
Идентификатор кодека : S_TEXT/UTF8
Идентификатор кодека/Информация : UTF-8 Plain Text
Заголовок : Russian [voronine]
Язык : Russian
Текст #2
Идентификатор : 5
Формат : UTF-8
Идентификатор кодека : S_TEXT/UTF8
Идентификатор кодека/Информация : UTF-8 Plain Text
Заголовок : English
Язык : English
Меню
00:00:00.000 : en:Chapter 01
00:06:52.870 : en:Chapter 02
00:11:03.663 : en:Chapter 03
00:17:20.038 : en:Chapter 04
00:21:06.556 : en:Chapter 05
00:28:36.798 : en:Chapter 06
00:31:50.366 : en:Chapter 07
00:36:19.886 : en:Chapter 08
00:41:35.743 : en:Chapter 09
00:47:21.838 : en:Chapter 10
00:52:30.188 : en:Chapter 11
00:54:32.102 : en:Chapter 12
00:58:01.227 : en:Chapter 13
01:03:02.320 : en:Chapter 14
01:09:39.550 : en:Chapter 15
01:15:12.049 : en:Chapter 16
01:21:49.654 : en:Chapter 17
01:24:41.117 : en:Chapter 18

Трейлер

Скриншоты

       
- -

_________________
Other forum [Profile] [PM]
Similar theme
Forum Topic Author Torrent Replies Last Post
./templates/default/images/folder_dl.gif FPS (1st Person) Metro: Exodus / Метро: Исход (2019) [Ru/Multi] (1.0.0.0) Repack R.G. Механики Clavik
1 | 0

4 | 443

0

2019-08-17 12:33
Clavik Latest
Display posts from previous:    
Reply to topic

The time now is: Today 19:55

All times are GMT + 3 Hours



You cannot post new topics in this forum
You cannot reply to topics in this forum
You cannot edit your posts in this forum
You cannot delete your posts in this forum
You cannot vote in polls in this forum
You cannot attach files in this forum
You cannot download files in this forum