Today is a free download without charge Download

Техасская резня бензопилой / Texas Chainsaw (Джон Льюсенхоп / John Luessenhop) [2013, США, ужасы, слэшер, триллер, BDRip 1080p] VO (Алексей Doctor Joker Матвеев) + Original Eng + Sub (Rus, Eng)

Reply to topic
 
Author
Message

Omen ®

Longevity: 8 years 5 months

Posts: 181087

Торрент-статистика

Post 14-May-2013 16:57

[Quote]

Техасская резня бензопилой / Texas Chainsaw «Evil wears many faces.» Год выпуска: 2013
Страна: США
Жанр: ужасы, слэшер, триллер
Продолжительность: 01:31:57.345
Перевод: Одноголосый закадровый b]Алексей Doctor_Joker Матвеев по переводу MartinaG Ненормативная лексика
Оригинальная аудиодорожка: Английская
Субтитры: Русские (MartinaG), английские (Full)
Студия: Leatherface Productions, Lionsgate, Mainline Pictures
Режиссёр: Джон Льюсенхоп / John Luessenhop
В ролях: Александра Даддарио, Дэн Игер, Трей Сонгз, Таня Рэймонд, Том Бэрри, Пол Рэй, Билл Моусли, Скотт Иствуд, Шон Сайпос, Керам Малики-Санчес и др.
Описание: Местный шериф согласился организовать для Джеба Сойера, который и скрывался под Кожаным лицом, честный судебный процесс и предоставить ему адвоката. Однако его намерениям мешает мэр, который ведет за собой толпу людей, жаждущих линчевать кровавого маньяка. Когда ситуация начинает выходить из-под контроля, а горожане принимаются ладить петли для убийцы, кто-то бросает в дом Сойера бутылку с зажигательной смесью. Дом сгорает, а вместе с ним в огне гибнут и все, кто в нем находился, включая самого Джеба и его отца. Разумеется, спустя определенное время убийства с помощью бензопилы начинаются снова. Первое предположение шерифа - Джеб Сойер выжил и решил отомстить. Но он ли это на самом деле? И если нет, то кто?
  • Официальный сайт
  • Кинопоиск
  • IMDB
  • Blu-ray.com
  • Сэмпл
    Качество: BDRip 1080p (HDMaNiAcS)
    Контейнер: MKV
    Видео кодек: MPEG-4 AVC Video
    Аудио кодек: DTS Audio
    Видео: MPEG-4 AVC Video / 12000 kbps / 1920x800p / 23,976 fps / 2.40:1 / 0.326 bit/pix / [email protected]
    Аудио 1: Русский / DTS Audio / 5.1 / 48 kHz / 1536 kbps / 24-bit / VO Алексей Doctor_Joker Матвеев
    Аудио 2: English / DTS Audio / 5.1 / 48 kHz / 1536 kbps / 24-bit / Оригинал
    Навигация по главам: да
Цитата:
  • Релиз доступен благодаря проекту GORESEWAGE!

Дополнительная информация

Цитата:
Всем большое спасибо:
  • За перевод и русские сабы - MartinaG.
  • За озвучку - Алексей Doctor_Joker Матвеев.
  • За спонсорство озвучки - будулайроманов.
  • За работу со звуком - Perevodman.
  • За дорогу DTS - balamut2010.
Также дорога VO отдельно.

Скриншот с названием фильма

MediaInfo

C:\Техасская резня бензопилой (Texas Chainsaw) 2013, США, ужасы, слэшер, триллер, BDRip 1080p GORESEWAGE.mkv
General
Unique ID : 248147606597555530592971388930600287065 (0xBAAF7D991A85B7248C51382684AD3B59)
Complete name : C:\Техасская резня бензопилой (Texas Chainsaw) 2013, США, ужасы, слэшер, триллер, BDRip 1080p GORESEWAGE.mkv
Format : Matroska
Format version : Version 4 / Version 2
File size : 9.64 GiB
Duration : 1h 31mn
Overall bit rate : 15.0 Mbps
Movie name : GORESEWAGE
Encoded date : UTC 2013-05-14 11:56:47
Writing application : mkvmerge v6.1.0 ('Old Devil') built on Mar 31 2013 15:21:18
Writing library : libebml v1.3.0 + libmatroska v1.4.0
Video #1
ID : 1
Format : AVC
Format/Info : Advanced Video Codec
Format profile : [email protected]
Format settings, CABAC : Yes
Format settings, ReFrames : 5 frames
Codec ID : V_MPEG4/ISO/AVC
Bit rate : 12.0 Mbps
Width : 1 920 pixels
Height : 800 pixels
Display aspect ratio : 2.40:1
Frame rate mode : Variable
Original frame rate : 23.976 fps
Color space : YUV
Chroma subsampling : 4:2:0
Bit depth : 8 bits
Scan type : Progressive
Bits/(Pixel*Frame) : 0.326
Title : GORESEWAGE
Writing library : x264 core 130 r2273 b3065e6
Encoding settings : cabac=1 / ref=5 / deblock=1:-3:-3 / analyse=0x3:0x133 / me=tesa / subme=11 / psy=1 / psy_rd=0.85:0.05 / mixed_ref=1 / me_range=24 / chroma_me=1 / trellis=2 / 8x8dct=1 / cqm=0 / deadzone=21,11 / fast_pskip=1 / chroma_qp_offset=-3 / threads=12 / lookahead_threads=2 / sliced_threads=0 / nr=0 / decimate=1 / interlaced=0 / bluray_compat=0 / constrained_intra=0 / bframes=8 / b_pyramid=2 / b_adapt=2 / b_bias=0 / direct=3 / weightb=1 / open_gop=0 / weightp=2 / keyint=240 / keyint_min=23 / scenecut=40 / intra_refresh=0 / rc=2pass / mbtree=0 / bitrate=12000 / ratetol=1.0 / qcomp=0.70 / qpmin=10 / qpmax=69 / qpstep=4 / cplxblur=20.0 / qblur=0.5 / ip_ratio=1.40 / pb_ratio=1.30 / aq=2:0.75
Language : English
Default : Yes
Forced : No
Audio #2
ID : 2
Format : DTS
Format/Info : Digital Theater Systems
Codec ID : A_DTS
Duration : 1h 31mn
Bit rate mode : Constant
Bit rate : 1 510 Kbps
Channel(s) : 6 channels
Channel positions : Front: L C R, Side: L R, LFE
Sampling rate : 48.0 KHz
Bit depth : 24 bits
Compression mode : Lossy
Stream size : 993 MiB (10%)
Title : Одноголосый закадровый Алексей Doctor_Joker Матвеев
Language : Russian
Default : Yes
Forced : No
Audio #3
ID : 3
Format : DTS
Format/Info : Digital Theater Systems
Codec ID : A_DTS
Duration : 1h 31mn
Bit rate mode : Constant
Bit rate : 1 510 Kbps
Channel(s) : 6 channels
Channel positions : Front: L C R, Side: L R, LFE
Sampling rate : 48.0 KHz
Bit depth : 24 bits
Compression mode : Lossy
Stream size : 993 MiB (10%)
Title : Оригинал
Language : English
Default : No
Forced : No
Text #4
ID : 4
Format : UTF-8
Codec ID : S_TEXT/UTF8
Codec ID/Info : UTF-8 Plain Text
Title : MartinaG
Language : Russian
Default : No
Forced : No
Text #5
ID : 5
Format : UTF-8
Codec ID : S_TEXT/UTF8
Codec ID/Info : UTF-8 Plain Text
Title : Full
Language : English
Default : No
Forced : No
Menu
00:00:00.000 : en:00:00:00.000
00:05:50.767 : en:00:05:50.767
00:13:10.081 : en:00:13:10.081
00:19:32.296 : en:00:19:32.296
00:26:39.223 : en:00:26:39.223
00:31:56.623 : en:00:31:56.623
00:38:02.197 : en:00:38:02.197
00:43:00.536 : en:00:43:00.536
00:47:00.359 : en:00:47:00.359
00:49:55.201 : en:00:49:55.201
00:52:09.418 : en:00:52:09.418
00:56:26.008 : en:00:56:26.008
00:59:24.644 : en:00:59:24.644
01:06:09.674 : en:01:06:09.674
01:13:03.629 : en:01:13:03.629
01:18:13.939 : en:01:18:13.939

Полноразмерный постер

Other forum [Profile] [PM]
Display posts from previous:    
Reply to topic

The time now is: Today 13:04

All times are GMT + 3 Hours



You cannot post new topics in this forum
You cannot reply to topics in this forum
You cannot edit your posts in this forum
You cannot delete your posts in this forum
You cannot vote in polls in this forum
You cannot attach files in this forum
You cannot download files in this forum