Today is a free download without charge Download

(Psybient, Dark Ambient, Ambient, Downtempo) E-Mantra - The Hermit's Sanctuary - 2013, FLAC (tracks) (WEB), lossless

Reply to topic
 
Author
Message

p2000s ®

Gender:

Longevity: 7 years 9 months

Posts: 89

Location: деактивирован, причина: последнее посещение 2017-11-29. darkos_bot 14.06.2019г

Торрент-статистика

Post 14-May-2013 08:58

[Quote]

E-Mantra - The Hermit's Sanctuary (WEB)
Label: Altar Records
Catalog #: ARCDA33
Страна: Romania
Жанр: Psybient, Dark Ambient, Ambient, Downtempo
Год выпуска: 2013
Формат: FLAC (tracks)
Битрейт аудио: lossless
Продолжительность: 01:08:40
Трэклист:
01. Between Two Worlds - The Boatman [07:25]
02. The Hermit's Sanctuary Part I - "Meditate" [06:54]
03. The Hermit's Sanctuary Part II - "Sleep" [07:05]
04. The Hermit's Sanctuary Part III - "Requiem" [05:58]
05. Howls From The Deep [06:48]
06. Daydream [06:27]
07. Pheromone [06:54]
08. Harmonic Waves (Re-edit) [06:13]
09. Nocturne [07:29]
10. Lonely Sorrow [07:25]

Log auCDtect:

-----------------------
DON'T MODIFY THIS FILE
-----------------------
PERFORMER: auCDtect Task Manager, ver. 1.5.1RC6 build 1.5.1.7
Copyright (c) 2008-2010 y-soft. All rights reserved
http://y-soft.org
ANALYZER: auCDtect: CD records authenticity detector, version 0.8.2
Copyright (c) 2004 Oleg Berngardt. All rights reserved.
Copyright (c) 2004 Alexander Djourik. All rights reserved.
FILE: 01. Between Two Worlds - The Boatman.flac
Size: 45734639 Hash: 780F9C9FB842083ED0368D9A2F1BB55C Accuracy: -m0
Conclusion: CDDA 100%
Signature: 2438BF59F232A7F50220F615E43E8B723F39648D
FILE: 10. Lonely Sorrow.flac
Size: 46245394 Hash: 5ADBEF5EB301B5B785179FB43CB2CEC6 Accuracy: -m0
Conclusion: CDDA 100%
Signature: FE57E6A4FEF842A016FF15E071C5591C7D71E039
FILE: 09. Nocturne.flac
Size: 51845171 Hash: AC7F8C077C33239090ABCE1DB656D194 Accuracy: -m0
Conclusion: CDDA 99%
Signature: E1B3D5FC2AA0372D55D0E5176BAD5FC18599B82B
FILE: 08. Harmonic Waves (Re-edit).flac
Size: 40437236 Hash: C871B081FCECFF3F5CE2520FC276314D Accuracy: -m0
Conclusion: CDDA 100%
Signature: AA04923EF7C222A3E78DAFA0B7A3D1B2CC73C978
FILE: 07. Pheromone.flac
Size: 48757236 Hash: 714886E6D97E2C96923836D047B8CA46 Accuracy: -m0
Conclusion: CDDA 100%
Signature: 7F89929B28C3D1ABC4E0B696B24194A62BE24507
FILE: 06. Daydream.flac
Size: 39931139 Hash: 8E114EF27606FEB2F9D07F5DD307B0A6 Accuracy: -m0
Conclusion: CDDA 100%
Signature: CA2A719CE04B16EF6BD9FB663D97BDE04A797ECF
FILE: 05. Howls From The Deep.flac
Size: 35669985 Hash: 211BC81DBFDE328E44A3F9A390F64190 Accuracy: -m0
Conclusion: CDDA 100%
Signature: CA477F4C1E6565E7829D7E1AEC38DA481AEA7BD3
FILE: 04. The Hermit's Sanctuary Part III - 'Requiem'.flac
Size: 42602935 Hash: 7D98AB86BA04E6CBB740091F5D96CAA4 Accuracy: -m0
Conclusion: CDDA 99%
Signature: C7C5F6E65CE6399E6ACE981BB7F01B29065A9243
FILE: 03. The Hermit's Sanctuary Part II - 'Sleep'.flac
Size: 44220179 Hash: E57F2441B40290F1C1AC57AB205DEB14 Accuracy: -m0
Conclusion: CDDA 100%
Signature: 270DDC580A7C6D94BCB800A3149EB78080C5A9E5
FILE: 02. The Hermit's Sanctuary Part I - 'Meditate'.flac
Size: 44255430 Hash: E778BB007FC871ED2AE4203397B2CB5E Accuracy: -m0
Conclusion: CDDA 99%
Signature: 068683C3D6669ED853A2686A4027ACEC2D237F16
Время раздачи: 24/7
Other forum [Profile] [PM]

Koralina

Longevity: 9 years 6 months

Posts: 994

Location: Lithuania

Торрент-статистика

Post 14-May-2013 10:29 (after 1 hour 30 minutes)

[Quote]

p2000s, в раздаче отсутствует Log проверки качества

пример

Exact Audio Copy V1.0 beta 3 from 29. August 2011
EAC extraction logfile from 3. April 2013, 0:30
Victorius / The Awakening
Used drive : PIONEER DVD-RW DVR-115D Adapter: 1 ID: 0
Read mode : Secure
Utilize accurate stream : Yes
Defeat audio cache : Yes
Make use of C2 pointers : No
Read offset correction : 48
Overread into Lead-In and Lead-Out : No
Fill up missing offset samples with silence : Yes
Delete leading and trailing silent blocks : No
Null samples used in CRC calculations : Yes
Used interface : Native Win32 interface for Win NT & 2000
Used output format : Internal WAV Routines
Sample format : 44.100 Hz; 16 Bit; Stereo
TOC of the extracted CD
Track | Start | Length | Start sector | End sector
---------------------------------------------------------
1 | 0:00.00 | 3:35.03 | 0 | 16127
2 | 3:35.03 | 3:50.56 | 16128 | 33433
3 | 7:25.59 | 4:34.27 | 33434 | 54010
4 | 12:00.11 | 4:29.23 | 54011 | 74208
5 | 16:29.34 | 3:50.59 | 74209 | 91517
6 | 20:20.18 | 4:13.52 | 91518 | 110544
7 | 24:33.70 | 5:58.09 | 110545 | 137403
8 | 30:32.04 | 4:40.71 | 137404 | 158474
9 | 35:13.00 | 4:22.27 | 158475 | 178151
10 | 39:35.27 | 4:28.57 | 178152 | 198308
11 | 44:04.09 | 3:35.39 | 198309 | 214472
12 | 47:39.48 | 5:25.71 | 214473 | 238918
Range status and errors
Selected range
Filename C:\Music\Victorius - The Awakening (Japanese edition 2013) - 2012\Victorius - The Awakening.wav
Peak level 98.2 %
Extraction speed 6.8 X
Range quality 100.0 %
Test CRC E4604E37
Copy CRC E4604E37
Copy OK
No errors occurred
AccurateRip summary
Track 1 not present in database
Track 2 not present in database
Track 3 not present in database
Track 4 not present in database
Track 5 not present in database
Track 6 not present in database
Track 7 not present in database
Track 8 not present in database
Track 9 not present in database
Track 10 not present in database
Track 11 not present in database
Track 12 not present in database
None of the tracks are present in the AccurateRip database
End of status report
Отсутствует .Cue

пример

REM GENRE "Power Metal"
REM DATE 2013
REM DISCID A00C710C
REM COMMENT "ExactAudioCopy v1.0b3"
PERFORMER "Victorius"
TITLE "The Awakening"
FILE "Victorius - The Awakening.flac" WAVE
TRACK 01 AUDIO
TITLE "Age of Tyranny "
PERFORMER "Victorius"
INDEX 01 00:00:00
TRACK 02 AUDIO
TITLE "Starfire "
PERFORMER "Victorius"
INDEX 01 03:35:03
TRACK 03 AUDIO
TITLE "The Awakening "
PERFORMER "Victorius"
INDEX 01 07:25:59
TRACK 04 AUDIO
TITLE "Lake of Hope "
PERFORMER "Victorius"
INDEX 01 12:00:11
TRACK 05 AUDIO
TITLE "Under Burning Skies "
PERFORMER "Victorius"
INDEX 01 16:29:34
TRACK 06 AUDIO
TITLE "Black Sun "
PERFORMER "Victorius"
INDEX 01 20:20:18
TRACK 07 AUDIO
TITLE "Demon Legions "
PERFORMER "Victorius"
INDEX 01 24:33:70
TRACK 08 AUDIO
TITLE "Through the Dead Lands "
PERFORMER "Victorius"
INDEX 01 30:32:04
TRACK 09 AUDIO
TITLE "Call for Resistance "
PERFORMER "Victorius"
INDEX 01 35:13:00
TRACK 10 AUDIO
TITLE "Kings Reborn "
PERFORMER "Victorius"
INDEX 01 39:35:27
TRACK 11 AUDIO
TITLE "Metalheart "
PERFORMER "Victorius"
INDEX 01 44:04:09
TRACK 12 AUDIO
TITLE "Saints and Sins (bonus track)"
PERFORMER "Victorius"
INDEX 00 47:38:48
INDEX 01 47:39:48
Без этих данных, релиз будет иметь статус сомнительно. #
Так же в релизе указано не верно: Формат: FLAC (tracks)
Пример: Формат аудио: FLAC
Тип рипа: tracks

_________________
Other forum [Profile] [PM]
Display posts from previous:    
Reply to topic

The time now is: Today 23:35

All times are GMT + 3 Hours



You cannot post new topics in this forum
You cannot reply to topics in this forum
You cannot edit your posts in this forum
You cannot delete your posts in this forum
You cannot vote in polls in this forum
You cannot attach files in this forum
You cannot download files in this forum