Today is a free download without charge Download

Лунатики / Sleepwalkers (Мик Гаррис / Mick Garris) [1992, США, ужасы, триллер, BDRip 720p] MVO + AVO + AVO + MVO Sub (Rus, Eng) + Original Eng

Reply to topic
 
Author
Message

Omen ®

Longevity: 8 years 5 months

Posts: 181087

Торрент-статистика

Post 14-May-2013 04:45

[Quote]

Лунатики / Sleepwalkers- Страна: США
Жанр: ужасы, триллер
Год выпуска: 1992
Продолжительность: 1h 29mn 11s
Перевод: Профессиональный (многоголосый закадровый) Видеосервис
Перевод 2: Авторский (одноголосый закадровый) Живов
Перевод 3: Авторский (одноголосый закадровый) Гаврилов
Перевод 4: Профессиональный (многоголосый закадровый)
Cубтитры: Rus, Eng SRT
Оригинальная аудиодорожка: английский-Режиссер: Мик Гаррис / Mick Garris
В ролях: Брайан Краузе, Медкен Эмик, Элис Крайдж, Джим Хейни, Синди Пикетт, Рон Перлман, Лаймен Уорд, Дэн Мартин, Гленн Шэдикс, Синтия Гэррис, Стивен Кинг, Джо Данте, Клайв Баркер, Тоуб Хупер, Джон Лэндис
Описание: Чарльз Брэйди и его мать — таинственное порождение темных сил: они оборотни. Их любимая добыча — молодые девственницы, дарующие им жизненную энергию. Но выбранная ими новая жертва оказывается сильнее и изобретательнее своих преследователей.
Школьница Таня Робертсон находит оружие против кровавой семейки. Больше всего на свете они боятся кошачьих когтей…-
IMDB Ratings: 4,8/10 from 10 648 users
Sample
Качество видео: BDRip 720p BDRemux 1080p
Формат видео: MKV
Видео: AVC 5800 Kbps 1280 x 696 (1.839) at 23.976 fps
Аудио: DTS 510 Kbps 2 channels, 48.0 KHz Видеосервис
Аудио 2: DTS 510 Kbps 2 channels, 48.0 KHz Живов
Аудио 3: AC-3 192 Kbps 2 channels, 48.0 KHz Гаврилов
Аудио 4: AC-3 192 Kbps 2 channels, 48.0 KHz MVO
Аудио 5: DTS 1 509 Kbps 2 channels, 48.0 KHz Eng
Формат субтитров: softsub (SRT)

MediaInfo | Log

Log

...last pass...
x264_64.exe: --pass 2 --bitrate 5800 --preset medium --level 4.1 --ref 11 --deblock -3:-2 --merange 32 --bframes 8 --direct auto --b-adapt 2 --trellis 2 --no-fast-pskip --psy-rd 1.00:0.05 --threads 12 --partitions all --subme 11 --me umh --rc-lookahead 60 --stats "J:\My\Sleepwalkers.1992.1080p.Bluray.AVC.Remux (1).log" --sar 1:1 --output "J:\My\Sleepwalkers.1992.1080p.Bluray.AVC.Remux (1).mkv" "D:\Video Job\temp\0177.avs"
raw [info]: 1280x696p 1:1 @ 2500000/104271 fps (cfr)
x264 [info]: using SAR=1/1
x264 [warning]: DPB size (11 frames, 38720 mbs) > level limit (9 frames, 32768 mbs)
x264 [info]: using cpu capabilities: MMX2 SSE2Fast SSSE3 SSE4.2 AVX
x264 [info]: profile High, level 4.1
x264 [info]: frame I:829 Avg QP:16.20 size:140748
x264 [info]: frame P:27393 Avg QP:19.42 size: 52471
x264 [info]: frame B:100082 Avg QP:21.36 size: 23224
x264 [info]: consecutive B-frames: 2.1% 3.1% 6.4% 18.7% 17.8% 32.1% 9.6% 7.9% 2.2%
x264 [info]: mb I I16..4: 5.1% 82.8% 12.1%
x264 [info]: mb P I16..4: 0.4% 10.2% 0.8% P16..4: 30.4% 38.6% 13.7% 1.4% 0.1% skip: 4.4%
x264 [info]: mb B I16..4: 0.0% 1.5% 0.1% B16..8: 42.2% 22.8% 4.6% direct: 6.2% skip:22.6% L0:45.6% L1:45.8% BI: 8.7%
x264 [info]: 8x8 transform intra:89.9% inter:65.3%
x264 [info]: direct mvs spatial:99.1% temporal:0.9%
x264 [info]: coded y,uvDC,uvAC intra: 94.8% 92.0% 73.0% inter: 40.9% 33.5% 7.1%
x264 [info]: i16 v,h,dc,p: 26% 13% 8% 54%
x264 [info]: i8 v,h,dc,ddl,ddr,vr,hd,vl,hu: 9% 5% 7% 11% 16% 15% 14% 12% 11%
x264 [info]: i4 v,h,dc,ddl,ddr,vr,hd,vl,hu: 12% 6% 4% 9% 16% 16% 14% 12% 11%
x264 [info]: i8c dc,h,v,p: 47% 17% 16% 21%
x264 [info]: Weighted P-Frames: Y:5.1% UV:2.0%
x264 [info]: ref P L0: 40.2% 9.8% 19.1% 7.3% 6.5% 4.4% 4.2% 2.2% 2.3% 1.8% 2.0% 0.3% 0.0%
x264 [info]: ref B L0: 67.9% 13.2% 6.7% 3.7% 2.6% 2.2% 1.7% 1.1% 0.6% 0.3%
x264 [info]: ref B L1: 91.7% 8.3%
x264 [info]: kb/s:5797.86
x264 [total]: encoded 128304 frames, 5.97 fps, 5797.86 kb/s
Format version : Version 4 / Version 2
File size : 5.43 GiB
Duration : 1h 29mn
Overall bit rate : 8 716 Kbps
Encoded date : UTC 2013-05-12 21:15:12
Writing application : mkvmerge v6.1.0 ('Old Devil') built on Mar 2 2013 14:32:37
Writing library : libebml v1.3.0 + libmatroska v1.4.0
Video
ID : 1
Format : AVC
Format/Info : Advanced Video Codec
Format profile : [email protected]
Format settings, CABAC : Yes
Format settings, ReFrames : 11 frames
Codec ID : V_MPEG4/ISO/AVC
Duration : 1h 29mn
Bit rate : 5 800 Kbps
Width : 1 280 pixels
Height : 696 pixels
Display aspect ratio : 1.85:1
Frame rate mode : Constant
Frame rate : 23.976 fps
Color space : YUV
Chroma subsampling : 4:2:0
Bit depth : 8 bits
Scan type : Progressive
Bits/(Pixel*Frame) : 0.272
Stream size : 3.51 GiB (65%)
Writing library : x264 core 130 r2273 b3065e6
Encoding settings : cabac=1 / ref=11 / deblock=1:-3:-2 / analyse=0x3:0x133 / me=umh / subme=11 / psy=1 / psy_rd=1.00:0.05 / mixed_ref=1 / me_range=32 / chroma_me=1 / trellis=2 / 8x8dct=1 / cqm=0 / deadzone=21,11 / fast_pskip=0 / chroma_qp_offset=-3 / threads=12 / lookahead_threads=2 / sliced_threads=0 / nr=0 / decimate=1 / interlaced=0 / bluray_compat=0 / constrained_intra=0 / bframes=8 / b_pyramid=2 / b_adapt=2 / b_bias=0 / direct=3 / weightb=1 / open_gop=0 / weightp=2 / keyint=250 / keyint_min=23 / scenecut=40 / intra_refresh=0 / rc_lookahead=60 / rc=2pass / mbtree=1 / bitrate=5800 / ratetol=1.0 / qcomp=0.60 / qpmin=0 / qpmax=69 / qpstep=4 / cplxblur=20.0 / qblur=0.5 / ip_ratio=1.40 / aq=1:1.00
Language : English
Default : Yes
Forced : No
Audio #1
ID : 2
Format : DTS
Format/Info : Digital Theater Systems
Mode : 16
Format settings, Endianness : Big
Codec ID : A_DTS
Duration : 1h 29mn
Bit rate mode : Constant
Bit rate : 510 Kbps
Channel(s) : 2 channels
Channel positions : Front: L R
Sampling rate : 48.0 KHz
Bit depth : 16 bits
Compression mode : Lossy
Stream size : 325 MiB (6%)
Title : MVO (Videoservic)
Language : Russian
Default : Yes
Forced : No
Audio #2
ID : 3
Format : DTS
Format/Info : Digital Theater Systems
Mode : 16
Format settings, Endianness : Big
Codec ID : A_DTS
Duration : 1h 29mn
Bit rate mode : Constant
Bit rate : 510 Kbps
Channel(s) : 2 channels
Channel positions : Front: L R
Sampling rate : 48.0 KHz
Bit depth : 16 bits
Compression mode : Lossy
Stream size : 325 MiB (6%)
Title : AVO (Jivov)
Language : Russian
Default : No
Forced : No
Audio #3
ID : 4
Format : AC-3
Format/Info : Audio Coding 3
Mode extension : CM (complete main)
Format settings, Endianness : Big
Codec ID : A_AC3
Duration : 1h 29mn
Bit rate mode : Constant
Bit rate : 192 Kbps
Channel(s) : 2 channels
Channel positions : Front: L R
Sampling rate : 48.0 KHz
Bit depth : 16 bits
Compression mode : Lossy
Stream size : 122 MiB (2%)
Title : AVO (Gavrilov)
Language : Russian
Default : No
Forced : No
Audio #4
ID : 5
Format : AC-3
Format/Info : Audio Coding 3
Mode extension : CM (complete main)
Format settings, Endianness : Big
Codec ID : A_AC3
Duration : 1h 29mn
Bit rate mode : Constant
Bit rate : 192 Kbps
Channel(s) : 2 channels
Channel positions : Front: L R
Sampling rate : 48.0 KHz
Bit depth : 16 bits
Compression mode : Lossy
Stream size : 122 MiB (2%)
Title : MVO
Language : Russian
Default : No
Forced : No
Audio #5
ID : 6
Format : DTS
Format/Info : Digital Theater Systems
Mode : 16
Format settings, Endianness : Big
Codec ID : A_DTS
Duration : 1h 29mn
Bit rate mode : Constant
Bit rate : 1 509 Kbps
Channel(s) : 2 channels
Channel positions : Front: L R
Sampling rate : 48.0 KHz
Bit depth : 16 bits
Compression mode : Lossy
Stream size : 963 MiB (17%)
Title : Eng (Original)
Language : English
Default : No
Forced : No
Text #1
ID : 7
Format : UTF-8
Codec ID : S_TEXT/UTF8
Codec ID/Info : UTF-8 Plain Text
Title : Rus
Language : Russian
Default : No
Forced : No
Text #2
ID : 8
Format : UTF-8
Codec ID : S_TEXT/UTF8
Codec ID/Info : UTF-8 Plain Text
Title : Eng (Original)
Language : English
Default : No
Forced : No

Скриншоты

Other forum [Profile] [PM]
Display posts from previous:    
Reply to topic

The time now is: Today 11:29

All times are GMT + 3 Hours



You cannot post new topics in this forum
You cannot reply to topics in this forum
You cannot edit your posts in this forum
You cannot delete your posts in this forum
You cannot vote in polls in this forum
You cannot attach files in this forum
You cannot download files in this forum