Today is a free download without charge Download

Супер / Super (Джеймс Ганн / James Gunn) [2010, США, чёрная комедия, драма, боевик, BDRemux 1080p] MVO (НТВ+) + AVO (Антон Карповский) + VO (Doctor Joker по переводу Serene) + Sub Rus, Eng + Original Eng

Reply to topic
 
Author
Message

Omen ®

Longevity: 8 years 5 months

Posts: 181087

Торрент-статистика

Post 14-May-2013 00:39

[Quote]

-Супер / Super-Страна: США
Жанр: чёрная комедия, драма, боевик
Год выпуска: 2010
Продолжительность: 01:36:04-Перевод: Профессиональный (многоголосый закадровый) НТВ+
Перевод 2: Авторский (одноголосый закадровый) Антон Карповский
Перевод 3: Одноголосый закадровый Алексей "Doctor_Joker" Матвеев по переводу Сергей "Serene" Ильин
Cубтитры: русские (Serene), английские
Оригинальная аудиодорожка: английский-Режиссер: Джеймс Ганн / James Gunn
В ролях: Рэйн Уилсон (Frank D'Arbo / The Crimson Bolt), Эллен Пейдж (Libby / Boltie), Лив Тайлер (Sarah), Кевин Бейкон (Jacques), Грегг Генри (Detective John Felkner), Майкл Рукер (Abe), Андре Ройо (Hamilton), Шон Ганн (Toby), Стефен Блекхарт (Quill), Линда Карделлини (Pet Store Employee), Натан Филлион (The Holy Avenger), Уильям Кэтт (Sgt. Fitzgibbon)-Описание: Фрэнк Дарбо (Рэйн Уилсон) – не самый везучий человек на Земле. В его жизни было лишь два счастливых момента, всё остальное - сплошь грусть, печаль и боль.
Однако, с помощью перста Божьего он понимает, что ему предначертано стать супергероем по кличке Багровый Болт и спасти свою жену (Лив Тайлер) от матёрого бандита-драгдилера (Кевин Бэйкон). В этом ему поможет простая девчонка-продавец комиксов (Эллен Пейдж), взявшая себе незаурядный псевдоним…-Доп. информация: -Тип релиза: BDRemux 1080p - СЭМПЛ
Контейнер: MKV
Видео: MPEG-4 AVC Video 34003 kbps 1080p / 23,976 fps / 16:9 / High Profile 4.1
Аудио: Dolby Digital Audio Russian 384 kbps 5.1 / 48 kHz | НТВ+
Аудио 2: DTS-HD Master Audio Russian 3834 kbps 5.1 / 48 kHz / 3834 kbps / 24-bit (DTS Core: 5.1 / 48 kHz / 1536 kbps / 24-bit) | Антон Карповский
Аудио 3: DTS Audio Russian 5.1 / 48 kHz / 1536 kbps / 24-bit | Doctor_Joker
Аудио 4: DTS-HD Master Audio English 3767 kbps 5.1 / 48 kHz / 3767 kbps / 24-bit (DTS Core: 5.1 / 48 kHz / 1536 kbps / 24-bit)

MI

Код:
General
Complete name                    : W:\Фильмы\Супер (2010. Super).mkv
Format                           : Matroska
File size                        : 29.2 GiB
Duration                         : 1h 36mn
Overall bit rate                 : 43.5 Mbps
Movie name                       : Release for RuTracker
Encoded date                     : UTC 2013-05-08 06:29:15
Writing application              : mkvmerge v4.9.1 ('Ich will') сборка от Jul 11 2011 23:53:15
Writing library                  : libebml v1.2.1 + libmatroska v1.1.1
Video
ID                               : 1
Format                           : AVC
Format/Info                      : Advanced Video Codec
Format profile                   : [email protected]
Format settings, CABAC           : Yes
Format settings, ReFrames        : 4 frames
Muxing mode                      : Container [email protected]
Codec ID                         : V_MPEG4/ISO/AVC
Duration                         : 1h 36mn
Bit rate mode                    : Variable
Maximum bit rate                 : 37.0 Mbps
Width                            : 1 920 pixels
Height                           : 1 080 pixels
Display aspect ratio             : 16:9
Frame rate                       : 23.976 fps
Color space                      : YUV
Chroma subsampling               : 4:2:0
Bit depth                        : 8 bits
Scan type                        : Progressive
Language                         : English
Audio #1
ID                               : 2
Format                           : AC-3
Format/Info                      : Audio Coding 3
Mode extension                   : CM (complete main)
Codec ID                         : A_AC3
Duration                         : 1h 36mn
Bit rate mode                    : Constant
Bit rate                         : 384 Kbps
Channel(s)                       : 6 channels
Channel positions                : Front: L C R, Side: L R, LFE
Sampling rate                    : 48.0 KHz
Bit depth                        : 16 bits
Stream size                      : 264 MiB (1%)
Title                            : НТВ+
Language                         : Russian
Audio #2
ID                               : 3
Format                           : DTS
Format/Info                      : Digital Theater Systems
Format profile                   : MA
Codec ID                         : A_DTS
Duration                         : 1h 36mn
Bit rate mode                    : Variable
Channel(s)                       : 6 channels
Channel positions                : Front: L C R, Side: L R, LFE
Sampling rate                    : 48.0 KHz
Bit depth                        : 24 bits
Title                            : Антон Карповский
Language                         : Russian
Audio #3
ID                               : 4
Format                           : DTS
Format/Info                      : Digital Theater Systems
Codec ID                         : A_DTS
Duration                         : 1h 36mn
Bit rate mode                    : Constant
Bit rate                         : 1 510 Kbps
Channel(s)                       : 6 channels
Channel positions                : Front: L C R, Side: L R, LFE
Sampling rate                    : 48.0 KHz
Bit depth                        : 24 bits
Stream size                      : 1.01 GiB (3%)
Title                            : Doctor Joker
Language                         : Russian
Audio #4
ID                               : 5
Format                           : DTS
Format/Info                      : Digital Theater Systems
Format profile                   : MA
Codec ID                         : A_DTS
Duration                         : 1h 36mn
Bit rate mode                    : Variable
Channel(s)                       : 6 channels
Channel positions                : Front: L C R, Side: L R, LFE
Sampling rate                    : 48.0 KHz
Bit depth                        : 24 bits
Language                         : English
Text #1
ID                               : 6
Format                           : UTF-8
Codec ID                         : S_TEXT/UTF8
Codec ID/Info                    : UTF-8 Plain Text
Title                            : Сергей "Serene" Ильин
Language                         : Russian
Text #2
ID                               : 7
Format                           : UTF-8
Codec ID                         : S_TEXT/UTF8
Codec ID/Info                    : UTF-8 Plain Text
Language                         : English
Menu #1
00:00:00.000                     : en:00:00:00.000
00:07:51.971                     : en:00:07:51.971
00:14:48.304                     : en:00:14:48.304
00:22:46.282                     : en:00:22:46.282
00:31:10.827                     : en:00:31:10.827
00:38:12.874                     : en:00:38:12.874
00:46:01.968                     : en:00:46:01.968
00:53:00.260                     : en:00:53:00.260
01:00:44.140                     : en:01:00:44.140
01:07:53.611                     : en:01:07:53.611
01:14:57.910                     : en:01:14:57.910
01:21:08.197                     : en:01:21:08.197
01:27:41.715                     : en:01:27:41.715
01:31:37.492                     : en:01:31:37.492
Other forum [Profile] [PM]
Display posts from previous:    
Reply to topic

The time now is: Today 00:57

All times are GMT + 3 Hours



You cannot post new topics in this forum
You cannot reply to topics in this forum
You cannot edit your posts in this forum
You cannot delete your posts in this forum
You cannot vote in polls in this forum
You cannot attach files in this forum
You cannot download files in this forum