Today is a free download without charge Download

Discovery. Дельфийский Оракул. Открытие Тайны / Discovery. Oracle At Delphi. Mystery Revealed (2006) SATRip

Reply to topic
 
Author
Message

UndegraundMen ®

Longevity: 7 years 7 months

Posts: 25145

Торрент-статистика

Post 14-May-2013 00:02

[Quote]

Discovery. Дельфийский Оракул. Открытие Тайны / Discovery. Oracle At Delphi. Mystery Revealed (2006) SATRip- Русское название: Дельфийский Оракул. Открытие Тайны
Оригинальное название: Oracle At Delphi. Mystery Revealed
Режиссер / Телекомпания: Discovery Channel
Год выпуска: 2006
Жанр: Документальный
Описание:
Ее голос был самым влиятельным в Древнегреческом Мире. Восхитительная красавица, она говорила от имени Бога Аполлона. Многие приходили к ней за советом. Более тысячелетия Дельфийский Оракул даровал пророчества верившим в него. Его загадочные слова изменяли ход истории, вызывали любовь, вражду и раскаяние, служили источником наживы. Хотя некогда Оракул обладал огромной властью, его время прошло. Землетрясения разрушили Храм Аполлона и христианство заставило Древних Богов замолчать. С тех пор источник сил Оракула оставался тайной...
Продолжительность: 00:47:02
Перевод: Дублированный
Видеокодек: Xvid
Битрейт видео: ~1351 Кбит/сек
Размер кадра: 640x480
Качество видео: SATRip
Аудиокодек: MP3,2ch
Битрейт аудио: 128 Кбит/сек

MI:

Общее
Полное имя : D:\upload\Discovery_Дельфийский Оракул. Открытие Тайны.avi
Формат : AVI
Формат/Информация : Audio Video Interleave
Размер файла : 500 Мбайт
Продолжительность : 47 м.
Общий поток : 1486 Кбит/сек
Программа кодирования : VirtualDubMod 1.5.4.1 (build 2178/release)
Библиотека кодирования : VirtualDubMod build 2178/release
Видео
Идентификатор : 0
Формат : MPEG-4 Visual
Профиль формата : Advanced [email protected]
Параметр BVOP формата : 1
Параметр QPel формата : Нет
Параметр GMC формата : Без точки перехода
Параметр матрицы формата : Выборочная
Идентификатор кодека : XVID
Идентификатор кодека/Подсказка : XviD
Продолжительность : 47 м.
Битрейт : 1351 Кбит/сек
Ширина : 640 пикселей
Высота : 480 пикселей
Соотношение сторон : 4:3
Частота кадров : 25,000 кадров/сек
Цветовое пространство : YUV
Субдискретизация насыщенности : 4:2:0
Битовая глубина : 8 бит
Тип развёртки : Прогрессивная
Метод сжатия : С потерями
Бит/(Пиксели*Кадры) : 0.176
Размер потока : 455 Мбайт (91%)
Библиотека кодирования : XviD 1.2.1 (UTC 2008-12-04)
Аудио
Идентификатор : 1
Формат : MPEG Audio
Версия формата : Version 1
Профиль формата : Layer 3
Режим : Joint stereo
Расширение режима : MS Stereo
Идентификатор кодека : 55
Идентификатор кодека/Подсказка : MP3
Продолжительность : 47 м.
Вид битрейта : Постоянный
Битрейт : 128 Кбит/сек
Каналы : 2 канала
Частота : 48,0 КГц
Метод сжатия : С потерями
Размер потока : 43,1 Мбайт (9%)
Выравнивание : Соединение по промежуткам
Продолжительность промежутка : 80 мс. (2,00 видеокадра)
Время предзагрузки промежутка : 504 мс.
Библиотека кодирования : LAME3.98r
Настройки программы : -m j -V 4 -q 2 -lowpass 17 -b 128
Скриншоты:
               
Время раздачи: 02.00х18.00 мск.
Other forum [Profile] [PM]
Display posts from previous:    
Reply to topic

The time now is: Today 16:08

All times are GMT + 3 Hours



You cannot post new topics in this forum
You cannot reply to topics in this forum
You cannot edit your posts in this forum
You cannot delete your posts in this forum
You cannot vote in polls in this forum
You cannot attach files in this forum
You cannot download files in this forum