Today is a free download without charge Download

Белый тигр ( Карен Шахназаров ) (2012, Военный ) [1080p] BDRip

Reply to topic
 
Author
Message

Витек1 ®

Gender:

Longevity: 8 years 8 months

Posts: 451

Location: Житомир

Торрент-статистика

Post 13-May-2013 21:07

[Quote]

Белый тигр - Русское название: Белый тигр
Год выпуска: 2012
Страна: Россия
Жанр: Военный
Перевод: Оригинал
Субтитры: Нет-
Дата российской премьеры: 3 мая 2012, «Каропрокат»
Дата выхода DVD релиза: 31 мая 2012, «Союз-Видео»
Дата выхода Blu-Ray релиза: 28 июня 2012, «Союз-Видео»-Режиссер: Карен Шахназаров
Актеры: Алексей Вертков, Виталий Кищенко, Валерий Гришко, Дмитрий Быковский-Ромашов, Герасим Архипов, Александр Вахов, Виталий Дорджиев, Владимир Ильин, Карл Кранцковски, Кристиан Редль
Описание фильма: Вторая Мировая война подходит к концу. Тяжелые затяжные бои изматывают обе стороны. Но чем увереннее наступают советские войска, тем чаще на полях сражений появляется огромным неуязвимый немецкий танк «Белый Тигр».
Внезапно возникает он в дыму сражений, безжалостно расстреливает своих противников и неожиданно исчезает. Советское командование решает для борьбы с «Белым Тигром» создать особый танк — специальную модель Т-34—85.-Релиз от: -Продолжительность: 01:48:43
Качество видео: BDRip
Контейнер: MKV
Видео: MPEG-4 AVC/H-264
Битрейт видео: 11.9 mbps
Размер кадра: 1920x1040
1.Аудио: Русский DTS 5.1, 48 kHz, 1510 kbps-

Знаете ли вы, что...

• Фильм снят по мотивам романа Ильи Бояшова «Танкист».

MediaInfo

Полное имя : Belyi.Tigr.2012.BDRip.1080p.x264-BufeR.mkv
Формат : Matroska
Версия формата : Version 2
Размер файла : 10,2 Гбайт
Продолжительность : 1 ч. 48 м.
Общий поток : 13,4 Мбит/сек
Название фильма : Belyi.Tigr.2012.BDRip.1080p.x264-BufeR
Дата кодирования : UTC 2012-06-11 13:56:15
Программа кодирования : mkvmerge v5.5.0 ('Healer') built on Apr 6 2012 21:43:24
Библиотека кодирования : libebml v1.2.3 + libmatroska v1.3.0
Видео
Идентификатор : 1
Формат : AVC
Формат/Информация : Advanced Video Codec
Профиль формата : [url=mailto:[email protected]][email protected][/url]
Параметр CABAC формата : Да
Параметр ReFrames формата : 4 кадра
Идентификатор кодека : V_MPEG4/ISO/AVC
Продолжительность : 1 ч. 48 м.
Битрейт : 11,9 Мбит/сек
Ширина : 1920 пикселей
Высота : 1040 пикселей
Соотношение сторон : 1,85:1
Частота кадров : 23,976 кадра/сек
Цветовое пространство : YUV
Субдискретизация насыщенности : 4:2:0
Битовая глубина : 8 бит
Тип развёртки : Прогрессивная
Бит/(Пиксели*Кадры) : 0.249
Размер потока : 8,86 Гбайт (87%)
Заголовок : Belyi.Tigr.2012.BDRip.1080p.x264-BufeR
Библиотека кодирования : x264 core 124 r2197 69a0443
Настройки программы : cabac=1 / ref=4 / deblock=1:-3:-3 / analyse=0x3:0x113 / me=umh / subme=11 / psy=1 / psy_rd=0.95:0.00 / mixed_ref=1 / me_range=32 / chroma_me=1 / trellis=2 / 8x8dct=1 / cqm=0 / deadzone=21,11 / fast_pskip=0 / chroma_qp_offset=-2 / threads=6 / sliced_threads=0 / nr=0 / decimate=1 / interlaced=0 / bluray_compat=0 / constrained_intra=0 / bframes=7 / b_pyramid=2 / b_adapt=2 / b_bias=0 / direct=3 / weightb=1 / open_gop=0 / weightp=2 / keyint=250 / keyint_min=24 / scenecut=40 / intra_refresh=0 / rc_lookahead=40 / rc=2pass / mbtree=0 / bitrate=11935 / ratetol=1.0 / qcomp=0.60 / qpmin=0 / qpmax=69 / qpstep=4 / cplxblur=20.0 / qblur=0.5 / vbv_maxrate=50000 / vbv_bufsize=50000 / nal_hrd=none / ip_ratio=1.40 / pb_ratio=1.30 / aq=1:1.00
Язык : Russian
Default : Да
Forced : Нет
Аудио
Идентификатор : 2
Формат : DTS
Формат/Информация : Digital Theater Systems
Идентификатор кодека : A_DTS
Продолжительность : 1 ч. 48 м.
Вид битрейта : Постоянный
Битрейт : 1510 Кбит/сек
Каналы : 6 каналов
Расположение каналов : Front: L C R, Side: L R, LFE
Частота : 48,0 КГц
Битовая глубина : 24 бит
Метод сжатия : С потерями
Размер потока : 1,15 Гбайт (11%)
Заголовок : [email protected] kbps
Язык : Russian
Default : Да
Forced : Нет
Меню
00:00:00.000 : ru:00:00:00.000
00:06:31.057 : ru:00:06:31.057
00:14:22.653 : ru:00:14:22.653
00:23:08.762 : ru:00:23:08.762
00:33:38.308 : ru:00:33:38.308
00:46:51.267 : ru:00:46:51.267
00:56:08.991 : ru:00:56:08.991
01:05:15.453 : ru:01:05:15.453
01:17:30.896 : ru:01:17:30.896
01:22:59.683 : ru:01:22:59.683
01:32:23.747 : ru:01:32:23.747
01:41:08.646 : ru:01:41:08.646
x264 [info]: frame I:864 Avg QP:15.52 size:215599
x264 [info]: frame P:30986 Avg QP:17.99 size: 99622
x264 [info]: frame B:124550 Avg QP:19.08 size: 51808
x264 [info]: consecutive B-frames: 1.2% 1.5% 6.7% 10.9% 11.4% 60.8% 6.6% 1.0%
Скриншоты:
         
Не забываем говорить спасибо, Вам не сложно, а мне приятно))
Скачал сам, дай и другим скачать!!!
Приятного просмотра))

_________________
Скачал сам, дай скачать другому!!!Не забудь сказать -
Other forum [Profile] [PM]
Display posts from previous:    
Reply to topic

The time now is: Today 23:53

All times are GMT + 3 Hours



You cannot post new topics in this forum
You cannot reply to topics in this forum
You cannot edit your posts in this forum
You cannot delete your posts in this forum
You cannot vote in polls in this forum
You cannot attach files in this forum
You cannot download files in this forum