Today is a free download without charge Download

Ку! Кин-дза-дза (Георгий Данелия, Татьяна Ильина) [..,2013 Mультфильм, Фантастика, Комедия, HDRip]

Reply to topic
 
Author
Message

Meshanik ®

Gender:

Longevity: 8 years 5 months

Posts: 3866

Location: Los Angeles

Торрент-статистика

Post 13-May-2013 20:10

[Quote]

Ку! Кин-дза-дза- Русское название: Ку! Кин-дза-дза
Производство: Россия / Первый канал, Кинокомпания CTB
Год выпуска: 2013
Жанр: Mультфильм, Фантастика, Комедия
Продолжительность: 01:36:27
Перевод: Не требуется (Русский)
Субтитры: Отсутствуют-Дата мировой премьеры: 11 апреля 2013
Дата российской премьеры: 11 апреля 2013, «Наше Кино»
Дата выхода DVD релиза: 14 мая 2013, «Lizard Cinema Trade»-Режиссер: Георгий Данелия, Татьяна Ильина
Продюсер: Сергей Сельянов, Константин Эрнст, Леонид Ярмольник
Актеры: Николай Губенко, Иван Цехмистренко, Андрей Леонов, Алексей Колган, Александр Адабашьян, Георгий Данелия, Игорь Кваша, Вахтанг Кикабидзе, Галина Данелия-Юркова, Полина Кутепова-Описание:
Начинающий диджей Толик и всемирно известный виолончелист Владимир Чижов встречают на шумной московской улице босого человека. Нажав на кнопку странной машинки, герои перемещаются на пустынную планету Плюк. Анимационный ремейк любимого всеми фильма «Кин-дза-дза!» не менее увлекательно и смешно, чем оригинал, рассказывает о приключениях Толика и дяди Вовы. В этом мире песка жители делятся на две категории — пацаков и плюкан, простая спичка обладает невероятной ценностью, а людей встречают и провожают по цвету штанов.- -Качество видео: HDRip
Видеокодек: Xvid
Битрейт видео: ~1572 Kb/s
Размер кадра: 720х400
Аудиокодек: AC3 5.1
Битрейт аудио: 448 Kb/s-

MediaInfo...

Код:
Общее
Полное имя                               : F:\Фильмы\Ку! Кин-дза-дза\Kindzadza.2013.O.HDRip.1400MB.avi
Формат                                   : AVI
Формат/Информация                        : Audio Video Interleave
Размер файла                             : 1,37 Гбайт
Продолжительность                        : 1 ч. 36 м.
Общий поток                              : 2029 Кбит/сек
Программа кодирования                    : VirtualDubMod 1.5.10.2 (build 2540/release)
Библиотека кодирования                   : VirtualDubMod build 2540/release
Видео
Идентификатор                            : 0
Формат                                   : MPEG-4 Visual
Профиль формата                          : Advanced [email protected]
Параметр BVOP формата                    : 2
Параметр QPel формата                    : Нет
Параметр GMC формата                     : Без точки перехода
Параметр матрицы формата                 : Default (MPEG)
Идентификатор кодека                     : XVID
Идентификатор кодека/Подсказка           : XviD
Продолжительность                        : 1 ч. 36 м.
Битрейт                                  : 1572 Кбит/сек
Ширина                                   : 720 пикселей
Высота                                   : 400 пикселей
Соотношение сторон                       : 16:9
Частота кадров                           : 23,976 кадра/сек
Цветовое пространство                    : YUV
Субдискретизация насыщенности            : 4:2:0
Битовая глубина                          : 8 бит
Тип развёртки                            : Прогрессивная
Метод сжатия                             : С потерями
Бит/(Пиксели*Кадры)                      : 0.228
Размер потока                            : 1,06 Гбайт (77%)
Библиотека кодирования                   : XviD 1.2.1 (UTC 2008-12-04)
Аудио
Идентификатор                            : 1
Формат                                   : AC-3
Формат/Информация                        : Audio Coding 3
Расширение режима                        : CM (complete main)
Параметр Endianness формата              : Big
Идентификатор кодека                     : 2000
Продолжительность                        : 1 ч. 36 м.
Вид битрейта                             : Постоянный
Битрейт                                  : 448 Кбит/сек
Каналы                                   : 6 каналов
Расположение каналов                     : Front: L C R, Side: L R, LFE
Частота                                  : 48,0 КГц
Битовая глубина                          : 16 бит
Метод сжатия                             : С потерями
Размер потока                            : 309 Мбайт (22%)
Выравнивание                             : Разделение по промежуткам
Продолжительность промежутка             : 42  мс. (1,00 видеокадр)
Время предзагрузки промежутка            : 500  мс.
-Скриншоты:-        -
Other forum [Profile] [PM]

Dracula

Longevity: 7 years

Posts: 11377

Торрент-статистика

Post 13-May-2013 20:33 (after 23 minutes)

Топик был перенесен из форума Отечественные мультфильмы в форум Новинки (Мультфильмы)


RUGUI
 
Display posts from previous:    
Reply to topic

The time now is: Today 07:24

All times are GMT + 3 Hours



You cannot post new topics in this forum
You cannot reply to topics in this forum
You cannot edit your posts in this forum
You cannot delete your posts in this forum
You cannot vote in polls in this forum
You cannot attach files in this forum
You cannot download files in this forum