Today is a free download without charge Download

Идеальный голос / Абсолютный слух / Pitch Perfect (Джейсон Мур / Jason Moore) [2012, США, музыка, комедия, BDRemux 1080p] Dub + VO (А. Дасевич) + VO (В. Замез) + Original (Eng) + Subs (Rus, Eng)

Reply to topic
 
Author
Message

Omen ®

Longevity: 8 years 5 months

Posts: 181087

Торрент-статистика

Post 13-May-2013 12:45

[Quote]

Идеальный голос / Pitch Perfect

-
-Страна: США
Студия: Brownstone Productions, Gold Circle Films
Жанр: музыка, комедия
Год выпуска: 2012
Продолжительность: 01:52:07--Перевод 1: Профессиональный (дублированный) Blu-ray
Перевод 2: Одноголосый закадровый Александр Дасевич по переводу Groby
Перевод 3: Одноголосый закадровый Вячеслав Замез по переводу Groby
Cубтитры: русские (forced, full - Blu-ray, Groby), английские SDH
Оригинальная аудиодорожка: английский--Режиссер: Джейсон Мур / Jason Moore
В ролях: Анна Кендрик, Скайлар Эстин, Бен Платт, Бриттани Сноу, Анна Кэмп, Ребел Уилсон, Элизабет Бэнкс, Алексис Кнапп, Эстер Дин, Хана Мэй Ли, Келли Джэйкл--Описание: Картина основывается на книге Мики Рэпкина «Пой идеально: Погоня за славой вокалиста а капелла», в которой рассказывается о студентке, внезапно обнаружившей в себе страсть к пению а капелла, то есть, без музыкального сопровождения.--imdb | kinopoisk | Сэмпл--Тип релиза: BDRemux 1080p [Pitch Perfect 2012 1080p Blu-Ray AVC DTS-HD MA 5.1-HDChina]
Контейнер: MKV
Видео: MPEG-4 AVC / 32900 kbps / 1920x1080 / 23,976 fps / 16:9 / High Profile 4.1
Аудио 1: DTS / 5.1 / 48 kHz / 768 kbps / 24 bits |Dub|
Аудио 2: DTS-HD Master Audio / 5.1 / 48 kHz / 3702 kbps / 24 bits (DTS Core: 5.1 / 48 kHz / 1510 kbps / 24 bits) |VO, Дасевич|
Аудио 3: AC3 / 5.1 / 48 kHz / 448 kbps / 16 bits |VO, zamez|
Аудио 4: DTS-HD Master Audio / 5.1 / 48 kHz / 3683 kbps / 24 bits (DTS Core: 5.1 / 48 kHz / 1510 kbps / 24 bits) |original|
Формат субтитров: softsub [SRT]

MediaInfo

ОбщееУникальный идентификатор : 180075500097725942353285333682946323059 (0x877947A03E55BD6BAFCC360BED1C3273)Полное имя : G:\HD\Идеальный голос.2012.Blu-Ray.Remux.(1080p).mkvФормат : MatroskaВерсия формата : Version 2Размер файла : 32,4 ГбайтПродолжительность : 1 ч. 52 м.Режим общего битрейта : ПеременныйОбщий поток : 41,3 Мбит/секДата кодирования : UTC 2013-05-12 16:02:57Программа кодирования : mkvmerge v5.8.0 ('No Sleep / Pillow') built on Sep 2 2012 15:37:04Библиотека кодирования : libebml v1.2.3 + libmatroska v1.3.0
ВидеоИдентификатор : 1Формат : AVCФормат/Информация : Advanced Video CodecПрофиль формата : [email protected]Параметр CABAC формата : ДаПараметр ReFrames формата : 4 кадраРежим смешивания : Container [email protected]Идентификатор кодека : V_MPEG4/ISO/AVCПродолжительность : 1 ч. 52 м.Вид битрейта : ПеременныйМаксимальный битрейт : 35,0 Мбит/секШирина : 1920 пикселейВысота : 1080 пикселейСоотношение сторон : 16:9Режим частоты кадров : ПостоянныйЧастота кадров : 23,976 кадра/секЦветовое пространство : YUVСубдискретизация насыщенности : 4:2:0Битовая глубина : 8 битТип развёртки : ПрогрессивнаяDefault : ДаForced : Нет
Аудио #1Идентификатор : 2Формат : DTSФормат/Информация : Digital Theater SystemsРежим : 16Параметр Endianness формата : BigИдентификатор кодека : A_DTSПродолжительность : 1 ч. 52 м.Вид битрейта : ПостоянныйБитрейт : 768 Кбит/секКаналы : 6 каналовРасположение каналов : Front: L C R, Side: L R, LFEЧастота : 48,0 КГцБитовая глубина : 24 битМетод сжатия : С потерямиРазмер потока : 616 Мбайт (2%)Заголовок : Dub, Blu-rayЯзык : RussianDefault : ДаForced : Нет
Аудио #2Идентификатор : 3Формат : DTSФормат/Информация : Digital Theater SystemsПрофиль формата : MA / CoreРежим : 16Параметр Endianness формата : BigИдентификатор кодека : A_DTSПродолжительность : 1 ч. 52 м.Вид битрейта : ПеременныйБитрейт : Неизвестно / 1509 Кбит/секКаналы : 6 каналовРасположение каналов : Front: L C R, Side: L R, LFEЧастота : 48,0 КГцБитовая глубина : 24 битМетод сжатия : Без потерь / LossyЗаголовок : VO, Александр ДасевичЯзык : RussianDefault : НетForced : Нет
Аудио #3Идентификатор : 4Формат : AC-3Формат/Информация : Audio Coding 3Расширение режима : CM (complete main)Параметр Endianness формата : BigИдентификатор кодека : A_AC3Продолжительность : 1 ч. 52 м.Вид битрейта : ПостоянныйБитрейт : 448 Кбит/секКаналы : 6 каналовРасположение каналов : Front: L C R, Side: L R, LFEЧастота : 48,0 КГцБитовая глубина : 16 битМетод сжатия : С потерямиРазмер потока : 359 Мбайт (1%)Заголовок : VO, Вячеслав ЗамезЯзык : RussianDefault : НетForced : Нет
Аудио #4Идентификатор : 5Формат : DTSФормат/Информация : Digital Theater SystemsПрофиль формата : MA / CoreРежим : 16Параметр Endianness формата : BigИдентификатор кодека : A_DTSПродолжительность : 1 ч. 52 м.Вид битрейта : ПеременныйБитрейт : Неизвестно / 1509 Кбит/секКаналы : 6 каналовРасположение каналов : Front: L C R, Side: L R, LFEЧастота : 48,0 КГцБитовая глубина : 24 битМетод сжатия : Без потерь / LossyЯзык : EnglishDefault : НетForced : Нет
Текст #1Идентификатор : 6Формат : UTF-8Идентификатор кодека : S_TEXT/UTF8Идентификатор кодека/Информация : UTF-8 Plain TextЗаголовок : forced, Blu-rayЯзык : RussianDefault : ДаForced : Нет
Текст #2Идентификатор : 7Формат : UTF-8Идентификатор кодека : S_TEXT/UTF8Идентификатор кодека/Информация : UTF-8 Plain TextЗаголовок : full, Blu-rayЯзык : RussianDefault : НетForced : Нет
Текст #3Идентификатор : 8Формат : UTF-8Идентификатор кодека : S_TEXT/UTF8Идентификатор кодека/Информация : UTF-8 Plain TextЗаголовок : GrobyЯзык : RussianDefault : НетForced : Нет
Текст #4Идентификатор : 9Формат : UTF-8Идентификатор кодека : S_TEXT/UTF8Идентификатор кодека/Информация : UTF-8 Plain TextЗаголовок : English SDHЯзык : EnglishDefault : НетForced : Нет
Меню00:00:00.000 : en:00:00:00.00000:04:32.564 : en:00:04:32.56400:09:17.932 : en:00:09:17.93200:15:50.908 : en:00:15:50.90800:19:45.643 : en:00:19:45.64300:23:08.470 : en:00:23:08.47000:27:47.332 : en:00:27:47.33200:32:45.755 : en:00:32:45.75500:38:59.212 : en:00:38:59.21200:43:53.881 : en:00:43:53.88100:49:57.411 : en:00:49:57.41100:54:20.466 : en:00:54:20.46601:01:48.580 : en:01:01:48.58001:06:26.441 : en:01:06:26.44101:11:56.270 : en:01:11:56.27001:18:56.899 : en:01:18:56.89901:23:23.165 : en:01:23:23.16501:33:42.116 : en:01:33:42.11601:38:49.590 : en:01:38:49.59001:44:46.238 : en:01:44:46.238

Скриншоты


Дополнительно

Цитата:
За дорожку с А.Дасевичем спасибо Neo_s
Other forum [Profile] [PM]

Dracula

Longevity: 7 years 6 months

Posts: 11225

Торрент-статистика

Post 13-May-2013 13:12 (after 27 minutes)

Топик был перенесен из форума Зарубежное кино (HD Video) в форум Зарубежное кино


RUGUI
 
Similar theme
Forum Topic Author Torrent Replies Last Post
./templates/default/images/folder_dl.gif Медицина и Здоровье Мантэк Чиа, Роберт Левански | Идеальное зрение без очков и операций [2017, Rus, FB2] DED
1 | 0

0 | 1146

0

2021-03-07 12:43
DED Latest
Display posts from previous:    
Reply to topic

The time now is: Today 10:04

All times are GMT + 3 Hours



You cannot post new topics in this forum
You cannot reply to topics in this forum
You cannot edit your posts in this forum
You cannot delete your posts in this forum
You cannot vote in polls in this forum
You cannot attach files in this forum
You cannot download files in this forum