Today is a free download without charge Download

Слепой / À l'aveugle / Blind Man (Ксавьер Палю / Xavier Palud) [2012, Франция, боевик, триллер, BDRip 1080p] VO (den904) + Original (Fre) + Sub (Eng)

Reply to topic
 
Author
Message

Omen ®

Longevity: 8 years 5 months

Posts: 181087

Торрент-статистика

Post 13-May-2013 04:37

[Quote]

Слепой / À l'aveugle / Blind Man Страна: Франция
Студия: EuropaCorp (co-production), France 2 Cinéma (co-production), ...
Жанр: боевик, триллер
Год выпуска: 2012
Продолжительность: 01:33:23
Перевод: Одноголосый закадровый den904 // Перевод: Анастасия Кузнецова
Cубтитры: английские (Anglophone)
Оригинальная аудиодорожка: французский
Режиссер: Ксавьер Палю / Xavier Palud
В ролях: Жак Гамблен, Ламбер Вильсон, Рафаэль Агоге, Арно Коссон, Антуан Леваннье, Фридерик Контожом, Давид Капелле, Мари Винсент, Николас Грэндхомм, Натали Винье
Описание:
Изувеченный труп молодой девушки найден у нее дома. Ни взлома, ни свидетелей, все выглядит идеальным преступлением. Расследование поручается капитану Лассаллю, опытному одинокому полицейскому, разбитому недавней смертью жены. Схожие по характеру жестокие убийства продолжают происходить, и в связи с ними Лассалля интригует личность слепого Нарвика. Но у него есть алиби, а его немощь, казалось бы, ограждает от подозрений. Странная дуэль наподобие игры в шахматы начинается между двумя людьми.
- -Тип релиза: BDRip 1080p (рип от HDS)

Контейнер: MKV
Видео: AVC (x264), 1920x816 (2,35:1) at 24,000 fps, 11200 Кbps, 0.298 bpp
Аудио 1: DTS; 1536 Kbps; CBR; 6 ch; 48 khz; 24 bit | VO - den904 |
Аудио 2: DTS; 1536 Kbps; CBR; 6 ch; 48 khz; 24 bit | Французский |
Формат субтитров: softsub (SRT)

Скриншоты || x264 Info || MediaInfo || Notes

MediaInfo

Код:
Общее
Уникальный идентификатор                 : 235790678386128115226305001559345443939 (0xB163A1FFE8E365B4A2C5D161F8E1B463)
Полное имя                               : Слепой.2012.L1.1080p.BluRay.x264-HDS.mkv
Формат                                   : Matroska
Версия формата                           : Version 4 / Version 2
Размер файла                             : 9,27 Гбайт
Продолжительность                        : 1 ч. 33 м.
Общий поток                              : 14,2 Мбит/сек
Название фильма                          : profile.php?mode=viewprofile&u=22488948
Дата кодирования                         : UTC 2013-05-12 23:13:35
Программа кодирования                    : mkvmerge v6.2.0 ('Promised Land') built on Apr 28 2013 12:22:01
Библиотека кодирования                   : libebml v1.3.0 + libmatroska v1.4.0
Видео
Идентификатор                            : 1
Формат                                   : AVC
Формат/Информация                        : Advanced Video Codec
Профиль формата                          : [email protected]
Параметр CABAC формата                   : Да
Параметр ReFrames формата                : 5 кадров
Идентификатор кодека                     : V_MPEG4/ISO/AVC
Продолжительность                        : 1 ч. 33 м.
Битрейт                                  : 11,2 Мбит/сек
Ширина                                   : 1920 пикселей
Высота                                   : 816 пикселей
Соотношение сторон                       : 2,35:1
Режим частоты кадров                     : Постоянный
Частота кадров                           : 24,000 кадра/сек
Цветовое пространство                    : YUV
Субдискретизация насыщенности            : 4:2:0
Битовая глубина                          : 8 бит
Тип развёртки                            : Прогрессивная
Бит/(Пиксели*Кадры)                      : 0.298
Размер потока                            : 7,12 Гбайт (77%)
Библиотека кодирования                   : x264 core 129 r2230 1cffe9f
Настройки программы                      : cabac=1 / ref=5 / deblock=1:-3:-3 / analyse=0x3:0x113 / me=umh / subme=10 / psy=1 / psy_rd=1.20:0.00 / mixed_ref=1 / me_range=32 / chroma_me=1 / trellis=2 / 8x8dct=1 / cqm=0 / deadzone=21,11 / fast_pskip=0 / chroma_qp_offset=-2 / threads=12 / lookahead_threads=2 / sliced_threads=0 / nr=0 / decimate=1 / interlaced=0 / bluray_compat=0 / constrained_intra=0 / bframes=9 / b_pyramid=2 / b_adapt=2 / b_bias=0 / direct=3 / weightb=1 / open_gop=0 / weightp=2 / keyint=250 / keyint_min=23 / scenecut=40 / intra_refresh=0 / rc=2pass / mbtree=0 / bitrate=11200 / ratetol=1.0 / qcomp=0.60 / qpmin=0 / qpmax=69 / qpstep=4 / cplxblur=20.0 / qblur=0.5 / ip_ratio=1.40 / pb_ratio=1.30 / aq=1:1.10
Язык                                     : English
Default                                  : Да
Forced                                   : Нет
Аудио #1
Идентификатор                            : 2
Формат                                   : DTS
Формат/Информация                        : Digital Theater Systems
Режим                                    : 16
Параметр Endianness формата              : Big
Идентификатор кодека                     : A_DTS
Продолжительность                        : 1 ч. 33 м.
Вид битрейта                             : Постоянный
Битрейт                                  : 1509 Кбит/сек
Каналы                                   : 6 каналов
Расположение каналов                     : Front: L C R, Side: L R, LFE
Частота                                  : 48,0 КГц
Битовая глубина                          : 24 бит
Метод сжатия                             : С потерями
Размер потока                            : 1008 Мбайт (11%)
Заголовок                                : VO [den904]
Язык                                     : Russian
Default                                  : Да
Forced                                   : Нет
Аудио #2
Идентификатор                            : 3
Формат                                   : DTS
Формат/Информация                        : Digital Theater Systems
Режим                                    : 16
Параметр Endianness формата              : Big
Идентификатор кодека                     : A_DTS
Продолжительность                        : 1 ч. 33 м.
Вид битрейта                             : Постоянный
Битрейт                                  : 1509 Кбит/сек
Каналы                                   : 6 каналов
Расположение каналов                     : Front: L C R, Side: L R, LFE
Частота                                  : 48,0 КГц
Битовая глубина                          : 24 бит
Метод сжатия                             : С потерями
Размер потока                            : 1008 Мбайт (11%)
Язык                                     : French
Default                                  : Нет
Forced                                   : Нет
Текст
Идентификатор                            : 4
Формат                                   : UTF-8
Идентификатор кодека                     : S_TEXT/UTF8
Идентификатор кодека/Информация          : UTF-8 Plain Text
Заголовок                                : fansub thx: Anglophone
Язык                                     : English
Default                                  : Нет
Forced                                   : Нет
Меню
00:00:00.000                             : de:00:00:00.000
00:10:22.167                             : de:00:10:22.167
00:19:59.667                             : de:00:19:59.667
00:30:04.625                             : de:00:30:04.625
00:41:13.917                             : de:00:41:13.917
00:51:54.625                             : de:00:51:54.625
01:04:07.792                             : de:01:04:07.792
01:15:22.708                             : de:01:15:22.708
01:27:23.000                             : de:01:27:23.000

x264 Info

x264 [info]: frame I:931 Avg QP:13.87 size:186117
x264 [info]: frame P:28560 Avg QP:15.13 size: 86501
x264 [info]: frame B:104995 Avg QP:17.41 size: 49505
Other forum [Profile] [PM]
Display posts from previous:    
Reply to topic

The time now is: Today 04:14

All times are GMT + 3 Hours



You cannot post new topics in this forum
You cannot reply to topics in this forum
You cannot edit your posts in this forum
You cannot delete your posts in this forum
You cannot vote in polls in this forum
You cannot attach files in this forum
You cannot download files in this forum