Today is a free download without charge Download

Швы / Stitches (Конор МакМахон / Conor McMahon) [2012, Ирландия, триллер, ужасы, комедия, BDRip 1080p] VO (den904) + Original (Eng) + Sub (Eng)

Reply to topic
 
Author
Message

Omen ®

Longevity: 8 years 5 months

Posts: 181087

Торрент-статистика

Post 13-May-2013 04:37

[Quote]

Швы / Stitches Страна: Ирландия
Студия: MPI Media Group (presents), Bórd Scannán na hÉireann (presents), ...
Жанр: триллер, ужасы, комедия
Год выпуска: 2012
Продолжительность: 01:26:15
Перевод: Одноголосый закадровый den904 // Перевод: Janetta
Cубтитры: английские
Оригинальная аудиодорожка: английский
Режиссер: Конор МакМахон / Conor McMahon
В ролях: Росс Ноубл, Томми Найт, Шэйн Мюррэй Коркоран, Джемма-Ли Деверё, Томмас Кэйн Бернс, Оуэн МакКуинн, Ройшн Баррон, Хью Малхерн, Томми Каллен, Лорна Демпси
Описание:
В центре событий клоун Ричард Гриндл, по прозвищу «Швы». как то раз клоун попадает на вечеринку отмороженных детей. «Веселье» заканчивается смертью клоуна. Через много лет бывшие дети, — теперь уже подростки, — вновь собираются вместе, чтобы хорошо провести время. И в этот вечер, как и много лет назад, на огонек снова заглянул клоун. «Швы». Вот только теперь вместо фокусов в его программе только месть.
- -Тип релиза: BDRip 1080p (рип от HDC)

Контейнер: MKV
Видео: AVC (x264), 1920x1080 (16:9) at 23,976 fps, 12800 Кbps, 0.258 bpp
Аудио 1: DTS; 1536 Kbps; CBR; 6 ch; 48 khz; 24 bit | VO - den904 |
Аудио 2: DTS; 1536 Kbps; CBR; 6 ch; 48 khz; 24 bit | Английский |
Формат субтитров: softsub (SRT)

Скриншоты || x264 Info || MediaInfo || Notes

MediaInfo

Код:
Общее
Уникальный идентификатор                 : 197695180272799154129740408519427205785 (0x94BAB4EDE2A33CB59425C1BA69C5AA99)
Полное имя                               : Швы.2012.L1.1080p.BluRay.x264-HDC.mkv
Формат                                   : Matroska
Версия формата                           : Version 4 / Version 2
Размер файла                             : 9,54 Гбайт
Продолжительность                        : 1 ч. 26 м.
Общий поток                              : 15,8 Мбит/сек
Название фильма                          : profile.php?mode=viewprofile&u=22488948
Дата кодирования                         : UTC 2013-05-12 10:26:43
Программа кодирования                    : mkvmerge v6.2.0 ('Promised Land') built on Apr 28 2013 12:22:01
Библиотека кодирования                   : libebml v1.3.0 + libmatroska v1.4.0
Видео
Идентификатор                            : 1
Формат                                   : AVC
Формат/Информация                        : Advanced Video Codec
Профиль формата                          : [email protected]
Параметр CABAC формата                   : Да
Параметр ReFrames формата                : 4 кадра
Идентификатор кодека                     : V_MPEG4/ISO/AVC
Продолжительность                        : 1 ч. 26 м.
Битрейт                                  : 12,8 Мбит/сек
Ширина                                   : 1920 пикселей
Высота                                   : 1080 пикселей
Соотношение сторон                       : 16:9
Режим частоты кадров                     : Постоянный
Частота кадров                           : 23,976 кадра/сек
Цветовое пространство                    : YUV
Субдискретизация насыщенности            : 4:2:0
Битовая глубина                          : 8 бит
Тип развёртки                            : Прогрессивная
Бит/(Пиксели*Кадры)                      : 0.258
Размер потока                            : 7,53 Гбайт (79%)
Библиотека кодирования                   : x264 core 130 r2273 b3065e6
Настройки программы                      : cabac=1 / ref=4 / deblock=1:-3:-3 / analyse=0x3:0x113 / me=umh / subme=9 / psy=1 / psy_rd=1.10:0.00 / mixed_ref=1 / me_range=32 / chroma_me=1 / trellis=2 / 8x8dct=1 / cqm=0 / deadzone=21,11 / fast_pskip=0 / chroma_qp_offset=-2 / threads=6 / lookahead_threads=1 / sliced_threads=0 / nr=0 / decimate=0 / interlaced=0 / bluray_compat=0 / constrained_intra=0 / bframes=4 / b_pyramid=2 / b_adapt=2 / b_bias=0 / direct=3 / weightb=1 / open_gop=0 / weightp=2 / keyint=250 / keyint_min=23 / scenecut=40 / intra_refresh=0 / rc_lookahead=80 / rc=2pass / mbtree=1 / bitrate=12812 / ratetol=1.0 / qcomp=0.80 / qpmin=0 / qpmax=69 / qpstep=4 / cplxblur=20.0 / qblur=0.5 / ip_ratio=1.10 / aq=1:0.80
Язык                                     : English
Default                                  : Да
Forced                                   : Нет
Аудио #1
Идентификатор                            : 2
Формат                                   : DTS
Формат/Информация                        : Digital Theater Systems
Режим                                    : 16
Параметр Endianness формата              : Big
Идентификатор кодека                     : A_DTS
Продолжительность                        : 1 ч. 26 м.
Вид битрейта                             : Постоянный
Битрейт                                  : 1509 Кбит/сек
Каналы                                   : 6 каналов
Расположение каналов                     : Front: L C R, Side: L R, LFE
Частота                                  : 48,0 КГц
Битовая глубина                          : 24 бит
Метод сжатия                             : С потерями
Размер потока                            : 931 Мбайт (10%)
Заголовок                                : VO [den904]
Язык                                     : Russian
Default                                  : Да
Forced                                   : Нет
Аудио #2
Идентификатор                            : 3
Формат                                   : DTS
Формат/Информация                        : Digital Theater Systems
Режим                                    : 16
Параметр Endianness формата              : Big
Идентификатор кодека                     : A_DTS
Продолжительность                        : 1 ч. 26 м.
Вид битрейта                             : Постоянный
Битрейт                                  : 1509 Кбит/сек
Каналы                                   : 6 каналов
Расположение каналов                     : Front: L C R, Side: L R, LFE
Частота                                  : 48,0 КГц
Битовая глубина                          : 24 бит
Метод сжатия                             : С потерями
Размер потока                            : 931 Мбайт (10%)
Язык                                     : English
Default                                  : Нет
Forced                                   : Нет
Текст
Идентификатор                            : 4
Формат                                   : UTF-8
Идентификатор кодека                     : S_TEXT/UTF8
Идентификатор кодека/Информация          : UTF-8 Plain Text
Язык                                     : English
Default                                  : Нет
Forced                                   : Нет
Меню
00:00:00.000                             : :1:  Happy Birthday
00:08:22.000                             : :2:  Clown Crypt
00:11:42.000                             : :3:  6 Years Later
00:18:51.000                             : :4:  Invites
00:28:04.000                             : :5:  Tom's Party
00:34:28.000                             : :6:  Kate's Here
00:42:43.000                             : :7:  Ancient Rituals
00:48:30.000                             : :8:  Sniff'Em Out
00:54:21.000                             : :9:  Killer In The House
01:01:49.000                             : :10:  Everybody Happy?
01:10:40.000                             : :11:  To The Graveyard
01:19:37.000                             : :12:  End Credits

x264 Info

x264 [info]: frame I:1339 Avg QP:14.92 size:205905
x264 [info]: frame P:36492 Avg QP:15.64 size:100816
x264 [info]: frame B:86250 Avg QP:16.35 size: 50260
Other forum [Profile] [PM]
Display posts from previous:    
Reply to topic

The time now is: Today 08:58

All times are GMT + 3 Hours



You cannot post new topics in this forum
You cannot reply to topics in this forum
You cannot edit your posts in this forum
You cannot delete your posts in this forum
You cannot vote in polls in this forum
You cannot attach files in this forum
You cannot download files in this forum