Today is a free download without charge Download

Ступени Цивилизации: Открывая Перу / Discovering Peru (2001) SATRip

Reply to topic
 
Author
Message

UndegraundMen ®

Longevity: 7 years 11 months

Posts: 25145

Торрент-статистика

Post 13-May-2013 00:01

[Quote]

Ступени Цивилизации: Открывая Перу / Discovering Peru (2001) SATRip- Русское название: Ступени Цивилизации: Открывая Перу
Оригинальное название: Discovering Peru
Режиссер: Фабио Брексиа
Год выпуска: 2001
Жанр: Документальный
Описание:
1-я часть. Следы цивилизаций, которые в продолжение многих столетий рождались, расцветали и гибли, обнаруживают во многих странах. Ряд самых поразительных в мире археологических памятников располагается в Перу. Их тщательно изучали на протяжении многих лет, но объяснить их появление, пользуясь даже современными знаниями и приборами, невозможно.
2-я часть. Цивилизация древнего Перу оставила нам в наследство памятники, которые бросают вызов самым современным технологиям. Каким же образом жители давно ушедших эпох смогли создать эти чудеса, не обладая доступными нам сегодня знаниями? Сами они отвечали на этот вопрос так: "Боги научили нас этому и помогли нам".
Продолжительность: 01:45:33
Перевод: Одноголосый закадровый, профессиональный
Видеокодек: Xvid
Битрейт видео: ~1338 Кбит/сек
Размер кадра: 704/400
Качество видео: SATRip
Аудиокодек: MPEG Layer 3
Битрейт аудио: 128 Кбит/сек, 48,0 КГц, 2ch

M.I.

Общее
Полное имя : H:\Культура_Ступени Цивилизации. Открывая Перу\Культура_Ступени Цивилизации. Открывая Перу_1.avi
Формат : AVI
Формат/Информация : Audio Video Interleave
Размер файла : 550 Мбайт
Продолжительность : 52 м.
Общий поток : 1474 Кбит/сек
Программа кодирования : VirtualDubMod 1.5.4.1 (build 2178/release)
Библиотека кодирования : VirtualDubMod build 2178/release
Видео
Идентификатор : 0
Формат : MPEG-4 Visual
Профиль формата : Advanced [email protected]
Параметр BVOP формата : 1
Параметр QPel формата : Нет
Параметр GMC формата : Без точки перехода
Параметр матрицы формата : Выборочная
Идентификатор кодека : XVID
Идентификатор кодека/Подсказка : XviD
Продолжительность : 52 м.
Битрейт : 1338 Кбит/сек
Ширина : 704 пикселя
Высота : 400 пикселей
Соотношение сторон : 16:9
Частота кадров : 25,000 кадров/сек
Цветовое пространство : YUV
Субдискретизация насыщенности : 4:2:0
Битовая глубина : 8 бит
Тип развёртки : Прогрессивная
Метод сжатия : С потерями
Бит/(Пиксели*Кадры) : 0.190
Размер потока : 500 Мбайт (91%)
Библиотека кодирования : XviD 1.2.1 (UTC 2008-12-04)
Аудио
Идентификатор : 1
Формат : MPEG Audio
Версия формата : Version 1
Профиль формата : Layer 3
Режим : Joint stereo
Расширение режима : MS Stereo
Идентификатор кодека : 55
Идентификатор кодека/Подсказка : MP3
Продолжительность : 52 м.
Вид битрейта : Постоянный
Битрейт : 128 Кбит/сек
Каналы : 2 канала
Частота : 48,0 КГц
Метод сжатия : С потерями
Размер потока : 47,8 Мбайт (9%)
Выравнивание : Разделение по промежуткам
Продолжительность промежутка : 80 мс. (2,00 видеокадра)
Время предзагрузки промежутка : 500 мс.
Библиотека кодирования : LAME3.98.2
Скриншоты:
       
Время раздачи: c 10:00 до 20:00
Other forum [Profile] [PM]
Display posts from previous:    
Reply to topic

The time now is: Today 07:07

All times are GMT + 3 Hours



You cannot post new topics in this forum
You cannot reply to topics in this forum
You cannot edit your posts in this forum
You cannot delete your posts in this forum
You cannot vote in polls in this forum
You cannot attach files in this forum
You cannot download files in this forum