Today is a free download without charge Download

Доверчивый дракон (Леонид Шварцман)[1988,Детский, Рисованная анимация,] SATRip

Reply to topic
 
Author
Message

sashau ®

Gender:

Longevity: 8 years 10 months

Posts: 3497

Торрент-статистика

Post 12-May-2013 14:42

[Quote]

Доверчивый дракон - Русское название: Доверчивый дракон
Год выпуска: 1988
Жанр: Детский, Рисованная анимация
Режиссер: Леонид Шварцман
Персонажи: Леонид Ярмольник, Ольга Аросева, Борис Новиков, Юрий Пузырев, Георгий Бурков, Евгений Весник, Спартак Мишулин, Людмила Иванова
Описание фильма:
Однажды одному мужику подкинули одно интересное яйцо из которого вылупился настоящий дракоша. Проходит немного времени и наш герой подрос, но его хозяева боятся говорить ему правду кто он на самом деле, так как боятся за свою жизнь. Они говорят, что он птица, затем, что собака, так как наш доверчивый дракон всему верил и когда узнал правду... Современная сказка о том, как появившийся на свет Дракон, встретив к себе хорошее отношение стал милым добродушным существом..

Качество видео: SATRip
Битрейт видео: ~00:09:37
Видео: MPEG4, XviD, 704x528 (4:3), 25.000 fps, 2 344 Kbps (0.252 bit/pixel)
Аудио: AC-3, 48.0 KHz, 2 ch, 192 Kbps, CBR

МедиаИнфо:

Видео
Идентификатор : 0
Формат : MPEG-4 Visual
Профиль формата : Advanced [email protected]
Параметр BVOP формата : 1
Параметр QPel формата : Нет
Параметр GMC формата : Без точки перехода
Параметр матрицы формата : Default (H.263)
Идентификатор кодека : XVID
Идентификатор кодека/Подсказка : XviD
Продолжительность : 9 м. 33 с.
Битрейт : 2344 Кбит/сек
Ширина : 704 пикселя
Высота : 528 пикселей
Соотношение сторон : 4:3
Частота кадров : 25,000 кадров/сек
Цветовое пространство : YUV
Субдискретизация насыщенности : 4:2:0
Битовая глубина : 8 бит
Тип развёртки : Прогрессивная
Метод сжатия : С потерями
Бит/(Пиксели*Кадры) : 0.252
Размер потока : 160 Мбайт (92%)
Библиотека кодирования : XviD 58
Аудио
Идентификатор : 1
Формат : AC-3
Формат/Информация : Audio Coding 3
Расширение режима : CM (complete main)
Параметр Endianness формата : Big
Идентификатор кодека : 2000
Продолжительность : 9 м. 33 с.
Вид битрейта : Постоянный
Битрейт : 192 Кбит/сек
Каналы : 2 канала
Расположение каналов : Front: L R
Частота : 48,0 КГц
Битовая глубина : 16 бит
Метод сжатия : С потерями
Размер потока : 13,1 Мбайт (8%)
Выравнивание : Разделение по промежуткам
Продолжительность промежутка : 40 мс. (1,00 видеокадр)
Время предзагрузки промежутка : 500 мс.
Скриншоты:
         
         
Other forum [Profile] [PM]
Display posts from previous:    
Reply to topic

The time now is: Today 14:21

All times are GMT + 3 Hours



You cannot post new topics in this forum
You cannot reply to topics in this forum
You cannot edit your posts in this forum
You cannot delete your posts in this forum
You cannot vote in polls in this forum
You cannot attach files in this forum
You cannot download files in this forum