Today is a free download without charge Download

Мечта маленького ослика (Галина Тургенева)[1984.,Детский, Кукольный, Сказка] DVDRip

Reply to topic
 
Author
Message

sashau ®

Gender:

Longevity: 9 years 10 months

Posts: 3497

Торрент-статистика

Post 12-May-2013 14:28

[Quote]

Мечта маленького ослика- Русское название: Мечта маленького ослика
Год выпуска: 1984
Жанр: Детский, Кукольный, Сказка
Режиссер: Галина Тургенева
Описание фильма:
Об ослике, который мечтал стать бабочкой

Продолжительность: 00:09:58
Качество видео: DVDRip
Видео: MPEG4, XviD, 704x528 (4:3), 25.000 fps, 2 100 Kbps (0.226 bit/pixel)
Аудио: AC-3, 48.0 KHz, 1 ch, 448 Kbps, CBRСкриншоты:
     
     

МедиаИнфо:

Видео
Идентификатор : 0
Формат : MPEG-4 Visual
Профиль формата : Advanced [email protected]
Параметр BVOP формата : 2
Параметр QPel формата : Нет
Параметр GMC формата : Без точки перехода
Параметр матрицы формата : Выборочная
Идентификатор кодека : XVID
Идентификатор кодека/Подсказка : XviD
Продолжительность : 9 м. 58 с.
Битрейт : 2100 Кбит/сек
Ширина : 704 пикселя
Высота : 528 пикселей
Соотношение сторон : 5:4
Соотношение сторон в оригинале : 4:3
Частота кадров : 25,000 кадров/сек
Цветовое пространство : YUV
Субдискретизация насыщенности : 4:2:0
Битовая глубина : 8 бит
Тип развёртки : Прогрессивная
Метод сжатия : С потерями
Бит/(Пиксели*Кадры) : 0.226
Размер потока : 150 Мбайт (82%)
Библиотека кодирования : XviD 65
Аудио
Идентификатор : 1
Формат : AC-3
Формат/Информация : Audio Coding 3
Расширение режима : CM (complete main)
Параметр Endianness формата : Big
Идентификатор кодека : 2000
Продолжительность : 9 м. 58 с.
Вид битрейта : Постоянный
Битрейт : 448 Кбит/сек
Каналы : 1 канал
Расположение каналов : Front: C
Частота : 48,0 КГц
Битовая глубина : 16 бит
Метод сжатия : С потерями
Размер потока : 32,0 Мбайт (18%)
Выравнивание : Соединение по промежуткам
Продолжительность промежутка : 40 мс. (1,00 видеокадр)
Время предзагрузки промежутка : 512 мс.
Other forum [Profile] [PM]
Display posts from previous:    
Reply to topic

The time now is: Today 23:57

All times are GMT + 3 Hours



You cannot post new topics in this forum
You cannot reply to topics in this forum
You cannot edit your posts in this forum
You cannot delete your posts in this forum
You cannot vote in polls in this forum
You cannot attach files in this forum
You cannot download files in this forum