Today is a free download without charge Download

Мрачные небеса / Dark Skies (Скотт Чарльз Стюарт) [2013.., Ужасы, Фантастика, Триллер, DVD5]

Reply to topic
 
Author
Message

Meshanik ®

Gender:

Longevity: 8 years 10 months

Posts: 3866

Location: Los Angeles

Торрент-статистика

Post 12-May-2013 14:21

[Quote]

Мрачные небеса / Dark Skies- Русское название: Мрачные небеса
Оригинальное название: Dark Skies
Год выпуска: 2013
Производство: США
Жанр: Ужасы, Фантастика, Триллер
Продолжительность: 01:33:01
Перевод: Дублированный (Лицензия)
Субтитры: Отсутствуют
Режиссер: Скотт Чарльз Стюарт
Актеры: Кери Рассел, Джош Хэмилтон, Дакота Гойо, Кадан Рокетт, Дж.К. Симмонс, Л.Дж. Бенет, Рич Хатчмэн, Минди Крист, Энни Турман, Джейк Уошберн
Описание фильма:
После того как серия тревожных событий врывается в мирную жизнь семьи Барреттов, они пытаются узнать, что за страшные неведомые силы стоят за всем этим.

Дата мировой премьеры: 21 февраля 2013
Дата российской премьеры: 21 февраля 2013, «Top Film Distribution»
Дата выхода DVD релиза: 26 марта 2013, «Lizard Cinema Trade»
Качество видео: DVD5
Видеокодек: MPEG-2
Битрейт видео: ~5074 kbps
Размер кадра: PAL 16:9 ([email protected]х576)
Аудио: AC3, 6 ch, 448 kbps (Дублированный, Русский)

Доп. материалы: Отсутствуют

MediaInfo:

Общее
Полное имя : Mrachnye.nebesa.2013.DVD5\VIDEO_TS\VTS_01_1.VOB
Формат : MPEG-PS
Размер файла : 1024 Мбайт
Продолжительность : 25 м.
Режим общего битрейта : Переменный
Общий поток : 5634 Кбит/сек
Видео
Идентификатор : 224 (0xE0)
Формат : MPEG Video
Версия формата : Version 2
Профиль формата : [email protected]
Параметр BVOP формата : Да
Параметр матрицы формата : Выборочная
Продолжительность : 25 м.
Вид битрейта : Переменный
Битрейт : 5074 Кбит/сек
Максимальный битрейт : 8000 Кбит/сек
Ширина : 720 пикселей
Высота : 576 пикселей
Соотношение сторон : 16:9
Частота кадров : 25,000 кадров/сек
Стандарт вещания : PAL
Цветовое пространство : YUV
Субдискретизация насыщенности : 4:2:0
Битовая глубина : 8 бит
Тип развёртки : Чересстрочная
Порядок развёртки : Верхнее поле первое
Метод сжатия : С потерями
Бит/(Пиксели*Кадры) : 0.489
Размер потока : 922 Мбайт (90%)
Аудио
Идентификатор : 189 (0xBD)-128 (0x80)
Формат : AC-3
Формат/Информация : Audio Coding 3
Расширение режима : CM (complete main)
Режим смешивания : DVD-Video
Продолжительность : 25 м.
Вид битрейта : Постоянный
Битрейт : 448 Кбит/сек
Каналы : 6 каналов
Расположение каналов : Front: L C R, Side: L R, LFE
Частота : 48,0 КГц
Битовая глубина : 16 бит
Метод сжатия : С потерями
Размер потока : 81,4 Мбайт (8%)
Меню

DVDInfo:

Title: Mrachnye.nebesa.2013.DVD5
Size: 3.63 Gb ( 3 803 382,00 KBytes ) - DVD-5
Enabled regions: 1, 2, 3, 4, 5, 6, 7, 8
VTS_01 :
Play Length: 01:33:01
Video: PAL 16:9 (720x576) VBR, Auto Letterboxed
Audio:
  • Russian (Dolby AC3, 6 ch)
    VTS_02 :
    Play Length: 00:00:08
    Video: PAL 4:3 (720x576) VBR
    VTS_03 :
    Play Length: 00:00:21
    Video: PAL 16:9 (720x576) VBR, Auto Letterboxed
    Audio:
  • English (Dolby AC3, 2 ch)
    * Menus Information *
    VIDEO_TS Menu
    Video:
  • NTSC 4:3 (720x480) VBR
  • Auto Pan&Scan, Auto Letterboxed
    Russian Language Unit :
  • Title Menu
    VTS_01 Menu
    Video:
  • PAL 16:9 (720x576) VBR
  • Auto Letterboxed
    Audio:
  • Not specified (Dolby AC3, 2 ch)
    Russian Language Unit :
  • Root Menu
  • Chapter (PTT) Menu
    VTS_02 Menu
    Video:
  • NTSC 4:3 (720x480) VBR
  • Auto Pan&Scan, Auto Letterboxed
    Language Unit :
  • Chapter (PTT) Menu
    VTS_03 Menu
    Video:
  • NTSC 4:3 (720x480) VBR
  • Auto Pan&Scan, Auto Letterboxed
    Language Unit :
  • Chapter (PTT) Menu

Меню DVD:

     
Скриншоты:
       
       
Other forum [Profile] [PM]

Dracula

Longevity: 7 years 5 months

Posts: 11216

Торрент-статистика

Post 02-Jan-2014 15:52 (after 7 months 21 day)

Топик был перенесен из форума Новинки (DVD, HD Video) в форум Зарубежное кино (HD Video)


kogesan
 
Display posts from previous:    
Reply to topic

The time now is: Today 03:35

All times are GMT + 3 Hours



You cannot post new topics in this forum
You cannot reply to topics in this forum
You cannot edit your posts in this forum
You cannot delete your posts in this forum
You cannot vote in polls in this forum
You cannot attach files in this forum
You cannot download files in this forum