Today is a free download without charge Download

Последний выход в Бруклин / Последний поворот на Бруклин / Last exit to Brooklyn (Ули Эдель / Uli Edel) [1989, США, Великобритания, Германия (ФРГ), Драма, BDRip 720p] AVO (Михалёв) + DVO + Sub Rus, Eng + Original Eng

Reply to topic
 
Author
Message

Omen ®

Longevity: 8 years 5 months

Posts: 181087

Торрент-статистика

Post 11-May-2013 21:55

[Quote]

Последний выход в Бруклин / Last exit to Brooklyn
Страна: США, Великобритания,, Германия (ФРГ)
Студия: Neue Constantin Film Production
Жанр: Драма
Год выпуска: 1989
Продолжительность: 01:42:55
Перевод: Авторский (одноголосый закадровый) - Алексей Михалёв
Перевод 2: Профессиональный (двухголосый закадровый)
Cубтитры: русские, английские
Оригинальная аудиодорожка: английский
Режиссер: Ули Эдель / Uli Edel
В ролях: Стивен Лэнг /Harry Black/, Стивен Болдуин / Sal /, Дженнифер Джейсон Ли /Tralala/, Берт Янг /Big Joe/, Питер Добсон /Vinnie/, Джерри Орбак /Boyce/, Алексис Аркетт /Georgette/, Джейсон Эндрюс /Tony, Сэм Рокуэлл /Al, Майа Дэнзигер /Maia Danziger, Камилль Савиола /Camille Saviola, Рики Лэйк /Ricki Lake, Камерон Йохан /Cameron Johann, Джон Костелло /John Costelloe, Кристофер Мёрни /Christopher Murney, Лиза Пассеро /Lisa Passero, Николас Дж. Джанджулио /Nicholas J. Giangiulio, Бернард Зетте /Bernard Zette, Роби Мартин /Robi Martin, Сара Роуз /Sarah Rose, Роберт Уайл /Robert Weil, Марк Бун Джуниор /Mark Boone Junior, Дэвид Уоршофски /David Warshofsky, Дэниэл Бир /Daniel Beer, Рутанья Алда /Rutanya Alda, Джеймс Харпер /James Harper, Майк Старр /Mike Starr, Кристофер Карри /Christopher Curry, Майкл О’Харе /Michael O'Hare, Джозеф Карберри /Joseph Carberry, Джон Майкл Беннетт /John Michael Bennett, Билл Монди /Bill Mondy, Фрэнк Винсент /Frank Vincent, Хьюберт Шелби мл. /Hubert Selby Jr., Питер Остин Ното /Peter Austin Noto, Стив Бэйкер /Steve Baker, Джон Хейден /John Hayden
Описание: Хроника жизни группы мелких преступников и мошенников в Бруклине (район Нью-Йорка). Фоном проходят социальные катаклизмы, связанные с забастовкой докеров. Жесткий профсоюзный лидер, /личность с низкой социальной ответственностью/ и банда молодых преступников шатаются по району в поисках любви и приключений. Временами комичный, трогательный и очень натуралистический фильм о парадоксах любви и житейских прозрениях. (Иванов М.)
--------------------------------------------------------
Оператор: Стефан Чапски /Stefan Czapsky/
Сценарист: Десмонд Накано /Desmond Nakano/
Продюсер: Херман Вигель /Herman Weigel/, Бернд Айкингер /Bernd Eichinger/
Переводчик: Алексей Михалёв
Монтажер: Петер Пжигодда /Peter Przygodda/
Композитор: Марк Кнопфлер /Mark Knopfler/
Художник: Дэвид Чэпман /David Chapman/
-------------------------------------------------------------
КИНОПОИСК
РЕЙТИНГ ФИЛЬМА: 7.087 (158)
6,7/10 3 404 users
--------------------------------------------------
Мир Бруклина
Если вы читали «Реквием по мечте» Хьюберта Селби младшего, то заметили, что его книга не имеет чёткого начала и конца. Только благодаря Даррену Аронофски, Селби доработал свой труд до логической развязки, потому фильм по книге мне понравился значительно больше, чем книга. Я не читал «Последний поворот на Бруклин», но исходя из фильма Ули Эделя можно сделать вывод, что существенной доработки книги не было, потому остаётся много недомолвок и не совсем понятен идейный посыл Селби.
«Последний поворот на Бруклин» представляет собой множество зарисовок из жизни Бруклина начала второй половины 20 века. Гнетущая беднота и безнадёжность толкает героев на совершение не совсем законных действий — каждый зарабатывает как умеет и как может без каких — либо далеких планов. В это время происходит забастовка докеров, имеющая большое значение для огромного числа жителей Бруклина. Именно за её развитием особенно интересно смотреть.
Селби, проживший много лет в Бруклине, постоянно общался с бруклинскими жителями либо видел или слышал о множестве тех историй, которые вошли в книгу, так или иначе происходящее на экране выглядит достоверным.
Из актёров выделяются Стивен Лэнг и Алек Болдуин.
Фильм Эделя должен понравиться ценителям таланта Селби, что же касается остальных, то они могут посмотреть ленту ради того, чтобы увидеть правдивый Бруклин, насколько это возможно для кино.
Megaslavik
--------------------------------------------------
СЭМПЛ
--------------------------------------------------
Тип релиза: BDRip 720p
Контейнер: MKV
Видео: 1280x696; 23.976 fps; ~ 4 570 Kbps; 0.214 Bits/Pixel
Аудио 1: Russian - 48 kHz, AC3, 2/0 Front: L R, ~ 192 kbps - Алексей Михалёв
Аудио 2: Russian - 48 kHz, AC3, 2/0 Front: L R, ~ 192 kbps - DVO
Аудио 3: English - 48 kHz, AC3, 2/0 Front: L R, ~ 192 kbps - Original
Формат субтитров: Russian ASS, English UTF-8

MediaInfo

General
Complete name : F:\EXCLUZIVE=19\ПОСЛЕДНИЙ ВЫХОД В БРУКЛИН [Last exit to Brooklyn][1989]\Last exit to Brooklyn [Uli Edel][1989]\Last.exit.to.brooklyn.1989.720p.bluray.mkv
Format : Matroska
File size : 3.70 GiB
Duration : 1h 42mn
Overall bit rate : 5 147 Kbps
Encoded date : UTC 2013-05-10 19:34:56
Writing application : mkvmerge v3.3.0 ('Language') built on Mar 24 2010 14:59:24
Writing library : libebml v0.8.0 + libmatroska v0.9.0
Video
ID : 1
Format : AVC
Format/Info : Advanced Video Codec
Format profile : [email protected]
Format settings, CABAC : Yes
Format settings, ReFrames : 5 frames
Format settings, GOP : M=1, N=32
Muxing mode : Container [email protected]
Codec ID : V_MPEG4/ISO/AVC
Duration : 1h 42mn
Bit rate : 4 570 Kbps
Width : 1 280 pixels
Height : 696 pixels
Display aspect ratio : 16:9
Frame rate : 23.976 fps
Color space : YUV
Chroma subsampling : 4:2:0
Bit depth : 8 bits
Scan type : Progressive
Bits/(Pixel*Frame) : 0.214
Stream size : 3.21 GiB (87%)
Title : Last.exit.to.brooklyn.1989
Writing library : x264 core 118 r2085 8a62835
Encoding settings : cabac=1 / ref=5 / deblock=1:0:0 / analyse=0x3:0x113 / me=umh / subme=8 / psy=1 / psy_rd=1.00:0.00 / mixed_ref=1 / me_range=16 / chroma_me=1 / trellis=1 / 8x8dct=1 / cqm=0 / deadzone=21,11 / fast_pskip=1 / chroma_qp_offset=-2 / threads=12 / sliced_threads=0 / nr=0 / decimate=1 / interlaced=0 / bluray_compat=0 / constrained_intra=0 / bframes=3 / b_pyramid=2 / b_adapt=2 / b_bias=0 / direct=3 / weightb=1 / open_gop=0 / weightp=2 / keyint=240 / keyint_min=24 / scenecut=40 / intra_refresh=0 / rc_lookahead=50 / rc=2pass / mbtree=1 / bitrate=4570 / ratetol=1.0 / qcomp=0.60 / qpmin=0 / qpmax=69 / qpstep=4 / cplxblur=20.0 / qblur=0.5 / ip_ratio=1.40 / aq=1:1.00
Language : English
Audio #1
ID : 2
Format : AC-3
Format/Info : Audio Coding 3
Mode extension : CM (complete main)
Codec ID : A_AC3
Duration : 1h 42mn
Bit rate mode : Constant
Bit rate : 192 Kbps
Channel(s) : 2 channels
Channel positions : Front: L R
Sampling rate : 48.0 KHz
Stream size : 141 MiB (4%)
Title : AVO Михалёв @ AC3 192 kbs
Language : Russian
Audio #2
ID : 3
Format : AC-3
Format/Info : Audio Coding 3
Mode extension : CM (complete main)
Codec ID : A_AC3
Duration : 1h 42mn
Bit rate mode : Constant
Bit rate : 192 Kbps
Channel(s) : 2 channels
Channel positions : Front: L R
Sampling rate : 48.0 KHz
Stream size : 141 MiB (4%)
Title : DVO @ AC3 192 kbs
Language : Russian
Audio #3
ID : 4
Format : AC-3
Format/Info : Audio Coding 3
Mode extension : CM (complete main)
Codec ID : A_AC3
Duration : 1h 42mn
Bit rate mode : Constant
Bit rate : 192 Kbps
Channel(s) : 2 channels
Channel positions : Front: L R
Sampling rate : 48.0 KHz
Stream size : 141 MiB (4%)
Title : Original @ AC3 192 kbs
Language : English
Text #1
ID : 5
Format : ASS
Codec ID : S_TEXT/ASS
Codec ID/Info : Advanced Sub Station Alpha
Language : Russian
Text #2
ID : 6
Format : UTF-8
Codec ID : S_TEXT/UTF8
Codec ID/Info : UTF-8 Plain Text
Language : English
Menu
00:00:00.000 : en:00:00:00.000
00:08:34.139 : en:00:08:34.139
00:12:56.901 : en:00:12:56.901
00:19:24.914 : en:00:19:24.914
00:24:18.082 : en:00:24:18.082
00:30:09.808 : en:00:30:09.808
00:34:46.418 : en:00:34:46.418
00:41:39.122 : en:00:41:39.122
00:48:48.175 : en:00:48:48.175
00:54:10.414 : en:00:54:10.414
01:00:56.111 : en:01:00:56.111
01:07:29.837 : en:01:07:29.837
01:12:55.830 : en:01:12:55.830
01:17:12.127 : en:01:17:12.127
01:23:01.935 : en:01:23:01.935
01:27:36.168 : en:01:27:36.168
01:32:14.612 : en:01:32:14.612
01:37:58.122 : en:01:37:58.122

Скриншоты

, .
. ,
, .
. .
Other forum [Profile] [PM]
Display posts from previous:    
Reply to topic

The time now is: Today 04:26

All times are GMT + 3 Hours



You cannot post new topics in this forum
You cannot reply to topics in this forum
You cannot edit your posts in this forum
You cannot delete your posts in this forum
You cannot vote in polls in this forum
You cannot attach files in this forum
You cannot download files in this forum