Today is a free download without charge Download

Смешной человек / Дирк / Dirch (Мартин Зандвлиет / Martin Zandvliet) [2011, Дания, драма, комедия, биография, BDRip 720p] VO [Andi] + Sub Rus [Adelstein S & Volha Samusevich], Eng + Original Eng

Reply to topic
 
Author
Message

Omen ®

Longevity: 8 years 5 months

Posts: 181087

Торрент-статистика

Post 11-May-2013 21:55

[Quote]

Смешной человек | Дирк | Dirch Страна: Denmark Дания
Студия: Danmarks Radio (DR), Det Danske Filminstitut, Koncern TV- og Filmproduktion, Nordisk Film A/S, Nordisk Film- & TV-Fond
Жанр: драма, комедия, биография
Год выпуска: 2011
Продолжительность: 1:50:36
Перевод: Любительское (одноголосое) [Andi]
Cубтитры: русские (автор перевода: Adelstein_S; редакция: Volha Samusevich), английские
Оригинальная аудиодорожка: датская
Режиссер: Мартин Зандвлиет / Martin Zandvliet
В ролях: Николай Лие Каас / Nikolaj Lie Kaas (Dirch Passer), Ларс Бригманн / Lars Brygmann (Stig Lommer), Мария Дейтз / Marie Dietz (Dorte Passer, 5 & 7 år), Малоу Рейман / Malou Reymann (Bente Askjær (as Malou Leth Reymann)), Лора Бро / Laura Bro (Sitter Horne-Rasmussen), Сия Эриксен / Silja Eriksen Jensen (Judy Gringer), Мартин Буч / Martin Buch (Preben Kaas), Мортен Криксков / Morten Kirkskov (Ove Sprogøe), Лаура Кристенсен / Laura Christensen (Hanne), Сара Грюневальд / Sarah Grünewald (Vicky), Фредерикке Бертелсен / Frederikke Cecilie Berthelsen (Inge (as Frederikke Cecilie Bertelsen)), Кристиан Халкен / Kristian Halken (Lommers assistent), Ларс Ранте / Lars Ranthe (Kjeld Petersen)
Описание: Фильм о жизни знаменитого датского актера и комика Дирха Пассера (1926-1980) на сцене и вне сцены...
| trailer
Тип релиза: BDRip 720p [DON] | Контейнер: MKV
Видео: H.264 (AVC [email protected]) 8 bit, 1280x534, 2,4:1, 6495 Kbps, 25 fps, 0.38 bit/pixel
Аудио RUS: AC3 DD 5,1 48 kHz 448 kbps | VO Andi |
Аудио Danish: AC3 DD 5.1 48 kHz 640 kbps
Формат субтитров: softsub (SRT)

MediaInfo

Код:
Общее
Уникальный идентификатор : 179460686403996538694632865061126357082 (0x8702DEF873ACA9899E4364904889405A)
Полное имя : ***\Dirch.2011.BDRip.720p.mkv
Формат : Matroska
Версия формата : Version 4 / Version 2
Размер файла : 5,98 Гбайт
Продолжительность : 1 ч. 50 м.
Общий поток : 7737 Кбит/сек
Название фильма : /*spam*/
Дата кодирования : UTC 2010-02-22 21:41:31
Программа кодирования : mkvmerge v5.9.0 ('On The Loose') built on Dec 9 2012 15:37:01
Библиотека кодирования : libebml v1.3.0 + libmatroska v1.4.0
Видео
Идентификатор : 1
Формат : AVC
Формат/Информация : Advanced Video Codec
Профиль формата : [email protected]
Параметр CABAC формата : Да
Параметр ReFrames формата : 12 кадров
Идентификатор кодека : V_MPEG4/ISO/AVC
Продолжительность : 1 ч. 50 м.
Битрейт : 6495 Кбит/сек
Ширина : 1280 пикселей
Высота : 534 пикселя
Соотношение сторон : 2,40:1
Режим частоты кадров : Постоянный
Частота кадров : 25,000 кадров/сек
Цветовое пространство : YUV
Субдискретизация насыщенности : 4:2:0
Битовая глубина : 8 бит
Тип развёртки : Прогрессивная
Бит/(Пиксели*Кадры) : 0.380
Размер потока : 5,02 Гбайт (84%)
Заголовок : Dirch 2011 720p Blu-ray DD5.1 x264-DON | H.264 (AVC [email protected]) 8 bit, 1280x534, 2,4:1, 6495 Kbps, 25 fps, 0.38 bit/pixel
Библиотека кодирования : x264 core 130 r2273kMod b3065e6
Настройки программы : cabac=1 / ref=12 / deblock=1:-3:-3 / analyse=0x3:0x133 / me=umh / subme=10 / psy=1 / fade_compensate=0.00 / psy_rd=1.00:0.05 / mixed_ref=1 / me_range=32 / chroma_me=1 / trellis=2 / 8x8dct=1 / cqm=0 / deadzone=21,11 / fast_pskip=0 / chroma_qp_offset=-3 / threads=6 / lookahead_threads=1 / sliced_threads=0 / nr=0 / decimate=1 / interlaced=0 / bluray_compat=0 / constrained_intra=0 / bframes=8 / b_pyramid=2 / b_adapt=2 / b_bias=0 / direct=3 / weightb=1 / open_gop=0 / weightp=2 / keyint=250 / keyint_min=25 / scenecut=40 / intra_refresh=0 / rc_lookahead=60 / rc=crf / mbtree=1 / crf=16.0000 / qcomp=0.70 / qpmin=0 / qpmax=69 / qpstep=4 / vbv_maxrate=50000 / vbv_bufsize=62500 / crf_max=0.0 / nal_hrd=none / ip_ratio=1.30 / aq=1:0.80
Язык : English
Default : Да
Forced : Нет
Аудио #1
Идентификатор : 2
Формат : AC-3
Формат/Информация : Audio Coding 3
Расширение режима : CM (complete main)
Параметр Endianness формата : Big
Идентификатор кодека : A_AC3
Продолжительность : 1 ч. 50 м.
Вид битрейта : Постоянный
Битрейт : 448 Кбит/сек
Каналы : 6 каналов
Расположение каналов : Front: L C R, Side: L R, LFE
Частота : 48,0 КГц
Битовая глубина : 16 бит
Метод сжатия : С потерями
Размер потока : 354 Мбайт (6%)
Заголовок : [Rus] VO Andi | AC3 DD 5,1 48 kHz 448 kbps
Язык : Russian
Default : Да
Forced : Нет
Аудио #2
Идентификатор : 3
Формат : AC-3
Формат/Информация : Audio Coding 3
Расширение режима : CM (complete main)
Параметр Endianness формата : Big
Идентификатор кодека : A_AC3
Продолжительность : 1 ч. 50 м.
Вид битрейта : Постоянный
Битрейт : 640 Кбит/сек
Каналы : 6 каналов
Расположение каналов : Front: L C R, Side: L R, LFE
Частота : 48,0 КГц
Битовая глубина : 16 бит
Метод сжатия : С потерями
Размер потока : 506 Мбайт (8%)
Заголовок : [Danish] AC3 DD 5.1 48 kHz 640 kbps
Язык : Danish
Default : Нет
Forced : Нет
Текст #1
Идентификатор : 4
Формат : UTF-8
Идентификатор кодека : S_TEXT/UTF8
Идентификатор кодека/Информация : UTF-8 Plain Text
Заголовок : [Russian] автор перевода: Adelstein_S; редакция: Volha Samusevich | softsub (SRT)
Язык : Russian
Default : Нет
Forced : Нет
Текст #2
Идентификатор : 5
Формат : UTF-8
Идентификатор кодека : S_TEXT/UTF8
Идентификатор кодека/Информация : UTF-8 Plain Text
Заголовок : [English] softsub (SRT)
Язык : English
Default : Да
Forced : Нет
Меню
00:00:00.000 : :00:00:00.000
00:11:38.880 : :00:11:38.880
00:19:00.480 : :00:19:00.480
00:29:45.600 : :00:29:45.600
00:39:26.400 : :00:39:26.400
00:50:29.760 : :00:50:29.760
01:01:49.920 : :01:01:49.920
01:09:50.400 : :01:09:50.400
01:20:11.040 : :01:20:11.040
01:30:21.600 : :01:30:21.600
01:40:55.200 : :01:40:55.200
01:44:36.960 : :01:44:36.960

Скриншоты

copy

http://s003.radikal.ru/i203/1305/2b/9b67ae30c292.png
http://s020.radikal.ru/i710/1305/71/740b60891ce3.png
http://s018.radikal.ru/i509/1305/31/9c1133234023.png
http://s017.radikal.ru/i441/1305/63/207a77fa34c4.png
http://s41.radikal.ru/i093/1305/cc/6490576ed803.png
http://s017.radikal.ru/i407/1305/f2/74d15f72f94f.png
http://i021.radikal.ru/1305/28/39e8a736515a.png
http://s018.radikal.ru/i505/1305/fe/8a16cdbc60f8.png
http://s017.radikal.ru/i422/1305/1b/62fcf49a3f3a.png
http://s020.radikal.ru/i702/1305/a5/53a1aed11445.png
http://i038.radikal.ru/1305/be/c7344376beb0.png
http://i057.radikal.ru/1305/cc/f32b2d1ea765.png
http://s017.radikal.ru/i424/1305/23/8ec46cff6383.png
http://s42.radikal.ru/i096/1305/5a/0a157ecf694f.png
http://s004.radikal.ru/i208/1305/5a/3e151bacfdd2.png
http://s54.radikal.ru/i143/1305/48/393737073500.png-http://i2.imageban.ru/out/2013/05/11/73683d3b700be2...2666f0d81229.png
http://i2.imageban.ru/out/2013/05/11/fa7d82e66d8623...f5f95525cb61.png
http://i1.imageban.ru/out/2013/05/11/5da0d83b4f769e...01731f400a45.png
http://i1.imageban.ru/out/2013/05/11/245ba4c115831c...61d0c90421b8.png
http://i5.imageban.ru/out/2013/05/11/cc1a9532e5fdf7...1ac8d9787e34.png
http://i5.imageban.ru/out/2013/05/11/9829d0951c4173...a2d640a25300.png
http://i3.imageban.ru/out/2013/05/11/5bc3630f0b176a...9228666449d4.png
http://i5.imageban.ru/out/2013/05/11/4a1d624212fde2...57f259de460c.png
http://i5.imageban.ru/out/2013/05/11/549031e65d3b5d...6c8c65b04ee6.png
http://i2.imageban.ru/out/2013/05/11/d081c2119a81d0...55883f3061b5.png
http://i2.imageban.ru/out/2013/05/11/3f3343e88bd3ee...72bd54029888.png
http://i5.imageban.ru/out/2013/05/11/df1bdc66d48d01...e5a683619409.png
http://i5.imageban.ru/out/2013/05/11/fe8703f655200f...f8419a350ae9.png
http://i2.imageban.ru/out/2013/05/11/6c6aa551246fb2...426c25ccb7c3.png
http://i5.imageban.ru/out/2013/05/11/328ad4d5084bc1...35136969a48d.png
http://i2.imageban.ru/out/2013/05/11/27c1aee90792f1...0cd45ea4b61a.png

Доп. информация

Кинобиография одного из важнейших персонажей датской культурной истории прошлого столетия, артиста Дирка Пассера. Участник популярного комического дуэта, он стал безусловной звездой 1960-х, а после смерти своего партнера Килда Петерсена продолжил сольную карьеру: в частности, его роль в «Тетке Чарлея» до сих пор считается эталонной.
Дирк был абсолютной звездой на сцене, оставаясь за кулисами застенчивым, неуверенным в себе человеком. Это и позволило сделать из его жизнеописания увлекательный сценарий, превращающий артиста в трагикомический типаж, сродни тем, которых он всю жизнь играл на сцене и в кино: одинокого мужчину в поисках ответа на вопрос «кто я такой?».
-
Other forum [Profile] [PM]
Display posts from previous:    
Reply to topic

The time now is: Today 09:18

All times are GMT + 3 Hours



You cannot post new topics in this forum
You cannot reply to topics in this forum
You cannot edit your posts in this forum
You cannot delete your posts in this forum
You cannot vote in polls in this forum
You cannot attach files in this forum
You cannot download files in this forum