Today is a free download without charge Download

Силы природы / Forces Of Nature (Бронуэн Хьюз / Bronwen Hughes) [1999, США, комедия, мелодрама, WEB-DL 720p] MVO (R5) + MVO (СТС) + Sub Rus, Eng + Original Eng

Reply to topic
 
Author
Message

Omen ®

Longevity: 8 years 5 months

Posts: 181087

Торрент-статистика

Post 11-May-2013 21:55

[Quote]

Силы природы / Forces Of Nature
Страна: США
Жанр: комедия, мелодрама
Год выпуска: 1999
Продолжительность: 01:45:54
Перевод: Профессиональный (многоголосый закадровый) R5
Перевод 2: Профессиональный (многоголосый закадровый) СТС
Cубтитры: русские, английские
Оригинальная аудиодорожка: английский
Режиссер: Бронуэн Хьюз / Bronwen Hughes
В ролях: Сандра Баллок / Sandra Bullock, Бен Аффлек / Ben Affleck, Мора Тирни / Maura Tierney, Стив Зан / Steve Zahn, Блайт Дэннер / Blythe Danner, Ронни Кокс / Ronny Cox, Нора Данн / Nora Dunn, Хулио Оскар Мечосо / Julio Oscar Mechoso, Рикки Джэй / Ricky Jay, Сара Силвермэн / Sarah Silverman, Зэк Галифианакис / Zach Galifianakis, Майкл Хичкок / Michael Hitchcock
Описание: У героя этой картины Бена (Бен Аффлек) в запасе всего два дня, чтобы успеть на собственную свадьбу с прекрасной девушкой. Для этого ему нужно добраться из Нью-Йорка, где он находится, в городок Саванна, что в штате Джорджия. Но внезапно на его пути возникает непреодолимое препятствие в виде разбушевавшейся природы и самолет, в котором он летит к своей невесте, попадает в аварию. Теперь Бену и его попутчице по имени Сара (Сандра Баллок) предстоит совместное путешествие, в котором их продолжают преследовать атмосферные катаклизмы и всяческие происшествия. А тут еще Бен с ужасом начинает осознавать, что влюбляется в Сару...

Сэмпл: http://multi-up.com/864526
Тип релиза: WEB-DL 720p
Контейнер: MKV
Видео: MPEG-4 AVC, 1280x720, 3924 кбит/сек, 23.976 fps
Аудио: 48 kHz, AC3 Dolby Digital, 3/2 (L,C,R,l,r) + LFE ch, ~448.00 kbps avg MVO R5
Аудио 2: 48 kHz, AC3 Dolby Digital, 2/0 (L,R) ch, ~192 kbps MVO СТС
Аудио 3: 48 kHz, AC3 Dolby Digital, 3/2 (L,C,R,l,r) + LFE ch, ~384.00 kbps avg original
Формат субтитров: softsub (SRT)

MediaInfo

ФИЛЬМЫ\СИЛЫ ПРИРОДЫ (2xMVO+SUB).1999.720p.WEB-DL.DD5.1.H.264-lord_i_74 (1).mkv
Формат : Matroska
Версия формата : Version 2
Размер файла : 3,74 Гбайт
Продолжительность : 1 ч. 45 м.
Общий поток : 5049 Кбит/сек
Дата кодирования : UTC 2013-05-08 15:44:56
Программа кодирования : mkvmerge v5.0.1 ('Es ist Sommer') built on Oct 9 2011 11:55:43
Библиотека кодирования : libebml v1.2.2 + libmatroska v1.3.0
Видео
Идентификатор : 1
Формат : AVC
Формат/Информация : Advanced Video Codec
Профиль формата : [email protected]
Параметр CABAC формата : Нет
Параметр ReFrames формата : 2 кадра
Идентификатор кодека : V_MPEG4/ISO/AVC
Продолжительность : 1 ч. 45 м.
Битрейт : 3924 Кбит/сек
Ширина : 1280 пикс.
Высота : 720 пикс.
Соотношение сторон : 16:9
Частота кадров : 23,976 кадр/сек
Цветовое пространство : YUV
Подвыборка цветности : 4:2:0
Битовая глубина : 8 бит
Тип развёртки : Прогрессивная
Бит/(Пиксели*Кадры) : 0.178
Размер потока : 2,90 Гбайт (78%)
Заголовок : Forces.of.Nature.1999.720p.WEB-DL.DD5.1.H.264-CtrlHD
Язык : English
Основные цвета : BT.709-5, BT.1361, IEC 61966-2-4, SMPTE RP177
Характеристики трансфера : BT.709-5, BT.1361
Коэффициенты матрицы : BT.709-5, BT.1361, IEC 61966-2-4 709, SMPTE RP177
Аудио #1
Идентификатор : 2
Формат : AC-3
Формат/Информация : Audio Coding 3
Расширение режима : CM (complete main)
Идентификатор кодека : A_AC3
Продолжительность : 1 ч. 45 м.
Вид битрейта : Постоянный
Битрейт : 448 Кбит/сек
Каналы : 6 каналов
Расположение каналов : Front: L C R, Side: L R, LFE
Частота : 48,0 КГц
Битовая глубина : 16 бит
Метод сжатия : С потерями
Размер потока : 339 Мбайт (9%)
Заголовок : MVO R5
Язык : Russian
Аудио #2
Идентификатор : 3
Формат : AC-3
Формат/Информация : Audio Coding 3
Расширение режима : CM (complete main)
Идентификатор кодека : A_AC3
Продолжительность : 1 ч. 45 м.
Вид битрейта : Постоянный
Битрейт : 192 Кбит/сек
Каналы : 2 канала
Расположение каналов : Front: L R
Частота : 48,0 КГц
Битовая глубина : 16 бит
Метод сжатия : С потерями
Размер потока : 145 Мбайт (4%)
Заголовок : MVO СТС
Язык : Russian
Аудио #3
Идентификатор : 4
Формат : AC-3
Формат/Информация : Audio Coding 3
Расширение режима : CM (complete main)
Идентификатор кодека : A_AC3
Продолжительность : 1 ч. 45 м.
Вид битрейта : Постоянный
Битрейт : 384 Кбит/сек
Каналы : 6 каналов
Расположение каналов : Front: L C R, Side: L R, LFE
Частота : 48,0 КГц
Битовая глубина : 16 бит
Метод сжатия : С потерями
Размер потока : 291 Мбайт (8%)
Заголовок : original
Язык : English
Текст #1
Идентификатор : 5
Формат : UTF-8
Идентификатор кодека : S_TEXT/UTF8
Идентификатор кодека/Информация : UTF-8 Plain Text
Заголовок : Sub R5
Язык : Russian
Текст #2
Идентификатор : 6
Формат : UTF-8
Идентификатор кодека : S_TEXT/UTF8
Идентификатор кодека/Информация : UTF-8 Plain Text
Заголовок : SDH
Язык : English
Меню
00:00:00.000 : en:Juanita the Bulltamer (Main Titles)
00:04:24.000 : en:Advice From Grandpa
00:08:55.000 : en:Fear of Flying
00:13:00.000 : en:Close Encounters of a Two-Legged Kind
00:16:09.000 : en:Breaking News
00:19:19.000 : en:He Might Be Dangerous
00:24:42.000 : en:I Know My Rights
00:29:16.000 : en:A Train To Nowhere
00:35:43.000 : en:An Evening At Kmart
00:40:58.000 : en:Laundered Money
00:45:49.000 : en:Meet Doctor Ben
00:50:27.000 : en:The Honeymooners
00:55:47.000 : en:Wedding Parties Collide
01:04:26.000 : en:Drowning In Lies
01:13:06.000 : en:I Know What Boys Like
01:21:52.000 : en:Two Husbands, One Bagel Shop
01:27:25.000 : en:you Must Be Proud Of Ben
01:33:46.000 : en:Eternity Can Wait
01:39:07.000 : en:Commitments Are Delightful Burdens
01:41:41.000 : en:End Credits

Скриншоты

Other forum [Profile] [PM]
Display posts from previous:    
Reply to topic

The time now is: Today 04:09

All times are GMT + 3 Hours



You cannot post new topics in this forum
You cannot reply to topics in this forum
You cannot edit your posts in this forum
You cannot delete your posts in this forum
You cannot vote in polls in this forum
You cannot attach files in this forum
You cannot download files in this forum