Today is a free download without charge Download

30 Seconds To Mars - Up In The Air [2013, Electronic rock, HDTV 720p]

Reply to topic
 
Author
Message

Omen ®

Longevity: 8 years 4 months

Posts: 181087

Торрент-статистика

Post 11-May-2013 21:55

[Quote]

30 Seconds To Mars - Up In The Air
Жанр: Electronic rock
Продолжительность: 08:30
Год выпуска: 2013
Качество: HDTV 720p
Контейнер: MKV
Видео: AVC 1280x720 16:9 4200 Kbps 23.976 fps
Аудио: MP3 192 Kbps 2 channels 44.1 KHz

Отчёт MediaInfo

GeneralUnique ID : 207542010951504982681189206320953280348 (0x9C23232A16E911D493CC496B1071C75C)Complete name : D:\30 Seconds To Mars - Up In The Air.mkvFormat : MatroskaFile size : 266 MiBDuration : 8mn 30sOverall bit rate : 4 370 KbpsEncoded date : UTC 2013-04-21 04:45:24Writing application : mkvmerge v3.3.0 ('Language') сборка от May 14 2010 17:11:50Writing library : libebml v0.8.0 + libmatroska v0.9.0
VideoID : 1Format : AVCFormat/Info : Advanced Video CodecFormat profile : [email protected] settings, CABAC : YesFormat settings, ReFrames : 2 framesCodec ID : V_MPEG4/ISO/AVCDuration : 8mn 30sBit rate : 4 200 KbpsWidth : 1 280 pixelsHeight : 720 pixelsDisplay aspect ratio : 16:9Frame rate mode : VariableFrame rate : 23.976 fpsColor space : YUVChroma subsampling : 4:2:0Bit depth : 8 bitsScan type : ProgressiveBits/(Pixel*Frame) : 0.190Stream size : 249 MiB (94%)Writing library : x264 core 112 r1834 a51816aEncoding settings : cabac=1 / ref=2 / deblock=1:0:0 / analyse=0x3:0x113 / me=hex / subme=6 / psy=1 / psy_rd=1.00:0.00 / mixed_ref=0 / me_range=16 / chroma_me=1 / trellis=0 / 8x8dct=1 / cqm=0 / deadzone=21,11 / fast_pskip=1 / chroma_qp_offset=-2 / threads=3 / sliced_threads=0 / nr=0 / decimate=1 / interlaced=0 / constrained_intra=0 / bframes=3 / b_pyramid=0 / b_adapt=1 / b_bias=0 / direct=3 / weightb=1 / open_gop=0 / weightp=2 / keyint=250 / keyint_min=25 / scenecut=40 / intra_refresh=0 / rc_lookahead=40 / rc=2pass / mbtree=1 / bitrate=4200 / ratetol=1.0 / qcomp=0.60 / qpmin=10 / qpmax=51 / qpstep=4 / cplxblur=20.0 / qblur=0.5 / ip_ratio=1.41 / aq=1:1.00
AudioID : 2Format : MPEG AudioFormat version : Version 1Format profile : Layer 3Mode : Joint stereoMode extension : MS StereoCodec ID : A_MPEG/L3Codec ID/Hint : MP3Duration : 8mn 30sBit rate mode : ConstantBit rate : 192 KbpsChannel(s) : 2 channelsSampling rate : 44.1 KHzCompression mode : LossyDelay relative to video : 52msStream size : 11.7 MiB (4%)Writing library : LAME3.98.4

Скриншоты

Other forum [Profile] [PM]
Display posts from previous:    
Reply to topic

The time now is: Today 18:55

All times are GMT + 3 Hours



You cannot post new topics in this forum
You cannot reply to topics in this forum
You cannot edit your posts in this forum
You cannot delete your posts in this forum
You cannot vote in polls in this forum
You cannot attach files in this forum
You cannot download files in this forum