Today is a free download without charge Download

Тело / El cuerpo (Ориол Паоло / Oriol Paulo) [2012, Испания, триллер, BDRemux 1080p] VO [Хихикающий доктор] + Sub Eng + Original Spa

Reply to topic
 
Author
Message

Omen ®

Longevity: 8 years 5 months

Posts: 181087

Торрент-статистика

Post 11-May-2013 13:39

[Quote]

Тело / El cuerpo Страна: Испания
Студия: Antena 3 Films, Canal+ España, Rodar y Rodar Cine y Televisión
Жанр: триллер
Год выпуска: 2012
Продолжительность:01:51:12
Перевод: Одноголосый (закадровый)Хихикающий доктор по субтитрам Janetta
Cубтитры: английские
Оригинальная аудиодорожка: испанский
Режиссер: Ориол Паоло / Oriol Paulo
В ролях: Белен Руэда, Уго Силва, Аура Гарридо, Хосе Коронадо, Хуан Пабло Шук, Наусикая Боннин, Кристина Пласас, Ориол Вила, Патриция Баргальо, Хорди Планас
Описание: Грузовик сбивает человека, убегающего от кого-то или от чего-то в панике. Прибывшие на место полицейские выясняют, что погибший — ночной сторож из близлежащего морга. Так что так напугало несчастного? И куда делся из отсека N3 недавно привезенный в морг труп?..

Тип релиза: BDRemux 1080p
Контейнер: MKV
Исходник:El cuerpo 2012 1080p ESP Blu-ray AVC DTS-HD MA 5.1
Видео: AVC,1920x1080,34499 kbps, 24.000 fps
Аудио 1: Russian: 48 kHz, DTS, 3/2 (L,C,R,l,r) + LFE ch, ~1536 kbps avg |Хихикающий доктор|
Аудио 2: Spanish DTS-HD Master Audio / 3716 kbps / 5.1 / 48 kHz / 24-bit (DTS Core: 5.1 / 48 kHz / 1509 kbps / 24-bit) |Original|
Чаптеры:есть

MediaInfo

General
Unique ID : 197930204873382385016133518903891627362 (0x94E7F8896456B4698D9AEF2300228D62)
Complete name : D:\Рипы\El.cuerpo.2012.1080p.ESP. Blu-ray-Remux.AVC.DTS-HD MA 5.1.mkv
Format : Matroska
Format version : Version 2
File size : 29.5 GiB
Duration : 1h 51mn
Overall bit rate mode : Variable
Overall bit rate : 37.9 Mbps
Movie name : -Talian-
Encoded date : UTC 2013-05-11 07:39:05
Writing application : mkvmerge v5.7.0 ('The Whirlwind') built on Jul 8 2012 20:08:51
Writing library : libebml v1.2.3 + libmatroska v1.3.0
Video
ID : 1
Format : AVC
Format/Info : Advanced Video Codec
Format profile : [email protected]
Format settings, CABAC : Yes
Format settings, ReFrames : 4 frames
Codec ID : V_MPEG4/ISO/AVC
Duration : 1h 51mn
Bit rate mode : Constant
Bit rate : 33.0 Mbps
Nominal bit rate : 35.0 Mbps
Width : 1 920 pixels
Height : 1 080 pixels
Display aspect ratio : 16:9
Frame rate : 24.000 fps
Standard : NTSC
Color space : YUV
Chroma subsampling : 4:2:0
Bit depth : 8 bits
Scan type : Progressive
Bits/(Pixel*Frame) : 0.662
Stream size : 25.6 GiB (87%)
Title : Remux
Language : English
Default : No
Forced : No
Color primaries : BT.709-5, BT.1361, IEC 61966-2-4, SMPTE RP177
Transfer characteristics : BT.709-5, BT.1361
Matrix coefficients : BT.709-5, BT.1361, IEC 61966-2-4 709, SMPTE RP177
Audio #1
ID : 2
Format : DTS
Format/Info : Digital Theater Systems
Codec ID : A_DTS
Duration : 1h 51mn
Bit rate mode : Constant
Bit rate : 1 510 Kbps
Channel(s) : 6 channels
Channel positions : Front: L C R, Side: L R, LFE
Sampling rate : 48.0 KHz
Bit depth : 24 bits
Compression mode : Lossy
Stream size : 1.17 GiB (4%)
Title : VO-Хихикающий доктор
Language : Russian
Default : Yes
Forced : No
Audio #2
ID : 3
Format : DTS
Format/Info : Digital Theater Systems
Format profile : MA / Core
Codec ID : A_DTS
Duration : 1h 51mn
Bit rate mode : Variable
Bit rate : 2 701 Kbps / 1 510 Kbps
Channel(s) : 6 channels
Channel positions : Front: L C R, Side: L R, LFE
Sampling rate : 48.0 KHz
Bit depth : 24 bits
Compression mode : Lossless / Lossy
Title : Original
Language : Spanish
Default : No
Forced : No
Text
ID : 4
Format : UTF-8
Codec ID : S_TEXT/UTF8
Codec ID/Info : UTF-8 Plain Text
Title : Sub
Language : English
Default : No
Forced : No
Menu
00:00:00.000 : 00:00:00.000
00:04:36.818 : 00:04:36.818
00:09:16.639 : 00:09:16.639
00:14:39.587 : 00:14:39.587
00:21:55.689 : 00:21:55.689
00:26:34.343 : 00:26:34.343
00:34:23.895 : 00:34:23.895
00:41:06.964 : 00:41:06.964
00:48:30.825 : 00:48:30.825
00:56:45.652 : 00:56:45.652
01:05:11.074 : 01:05:11.074
01:11:21.903 : 01:11:21.903
01:19:30.724 : 01:19:30.724
01:25:00.887 : 01:25:00.887
01:31:49.838 : 01:31:49.838
01:37:32.889 : 01:37:32.889
01:44:44.737 : 01:44:44.737

Скриншоты



Other forum [Profile] [PM]
Display posts from previous:    
Reply to topic

The time now is: Today 11:48

All times are GMT + 3 Hours



You cannot post new topics in this forum
You cannot reply to topics in this forum
You cannot edit your posts in this forum
You cannot delete your posts in this forum
You cannot vote in polls in this forum
You cannot attach files in this forum
You cannot download files in this forum