Today is a free download without charge Download

АББА: фильм / ABBA: The Movie (Лассе Халлстром / Lasse Hallstrom) (Музыка, Драма, 1977) BDRip [H.264]

Reply to topic
 
Author
Message

Omen ®

Longevity: 8 years 6 months

Posts: 181087

Торрент-статистика

Post 11-May-2013 12:16

[Quote]

АББА: фильм / ABBA: The Movie - Русское название: АББА: фильм
Оригинальное название: ABBA: The Movie
Год выпуска: 1977
Жанр: Музыка, Драма
Производство: Австралия, Швеция / Polar Music International, Reg Grundy Productions Pty. Ltd.
Описание фильма:
Фильм рассказывает об австралийских гастролях сверхпопулярной в свое время шведской группы "АББА". Незадачливый репортер и диск-жокей Хьюз, пытается взять интервью у музыкантов. Постановка красивая, динамичная, без провалов и пустот, умный монтаж, создающий впечатление документальности происходящего. Зритель узнает кое-что о жизни и методах их работы. Настоящий подарок для тех, кто до сих пор слушает эту талантливую музыку.
Режиссер: Лассе Халлстром / Lasse Hallstrom
Актеры: Агнета Фельтскуг, Бенни Андерссон, Бьерн Ульвеус, Анни-Фрид Люнгстад , Роберт Хьюз, Том Оливер, Брюс Барри, Стиг Андерсон, Рей Маршалл, Фрэнсис Мэттьюс
Продолжительность: 01:35:17
Перевод: Многоголосый закадровый (ТВ5)
Язык субтитров: Русский, английский
Вид субтитров: Вшитые отключаемые

Дата мировой премьеры: 15 декабря 1977
Качество видео: BDRip-AVC
Видео: MPEG-4 AVC/H.264, 988x424 (2.33:1), 24,000 fps, 2389 Кbps, 0.238 bit/pixel
Аудио#1: 48 kHz, AC3 Dolby Digital, 3/2 (L,C,R,l,r) + LFE ch, 448.00 kbps | Русский
Аудио#2: 48 kHz, AC3 Dolby Digital, 3/2 (L,C,R,l,r) + LFE ch, 448.00 kbps | Английский

MI

Общее
Уникальный идентификатор : 237194151245375768906078828856451158692 (0xB271EE8DD5396BAFB86276C849BA52A4)
Полное имя : ABBA.Fil'm.1977.P.BDRip.x264.potroks.mkv
Формат : Matroska
Версия формата : Version 4 / Version 2
Размер файла : 2,19 Гбайт
Продолжительность : 1 ч. 35 м.
Общий поток : 3287 Кбит/сек
Название фильма : -=POTROKS=-
Дата кодирования : UTC 2013-05-10 18:53:11
Программа кодирования : mkvmerge v5.9.0 ('On The Loose') built on Dec 15 2012 16:39:58
Библиотека кодирования : libebml v1.3.0 + libmatroska v1.4.0
Видео
Идентификатор : 1
Формат : AVC
Формат/Информация : Advanced Video Codec
Профиль формата : [url=mailto:[email protected]][email protected][/url]
Параметр CABAC формата : Да
Параметр ReFrames формата : 11 кадров
Идентификатор кодека : V_MPEG4/ISO/AVC
Продолжительность : 1 ч. 35 м.
Битрейт : 2389 Кбит/сек
Ширина : 988 пикселей
Высота : 424 пикселя
Соотношение сторон : 2,35:1
Режим частоты кадров : Постоянный
Частота кадров : 24,000 кадра/сек
Цветовое пространство : YUV
Субдискретизация насыщенности : 4:2:0
Битовая глубина : 8 бит
Тип развёртки : Прогрессивная
Бит/(Пиксели*Кадры) : 0.238
Размер потока : 1,55 Гбайт (71%)
Заголовок : ABBA: The Movie
Библиотека кодирования : x264 core 125 r2208 d9d2288
Настройки программы : cabac=1 / ref=11 / deblock=1:-2:-2 / analyse=0x3:0x133 / me=umh / subme=9 / psy=1 / psy_rd=1.07:0.02 / mixed_ref=1 / me_range=48 / chroma_me=1 / trellis=2 / 8x8dct=1 / cqm=0 / deadzone=21,11 / fast_pskip=0 / chroma_qp_offset=-3 / threads=9 / lookahead_threads=1 / sliced_threads=0 / nr=0 / decimate=1 / interlaced=0 / bluray_compat=0 / constrained_intra=0 / bframes=12 / b_pyramid=2 / b_adapt=2 / b_bias=0 / direct=3 / weightb=1 / open_gop=0 / weightp=2 / keyint=240 / keyint_min=23 / scenecut=40 / intra_refresh=0 / rc_lookahead=150 / rc=2pass / mbtree=1 / bitrate=2389 / ratetol=1.0 / qcomp=0.70 / qpmin=0 / qpmax=69 / qpstep=4 / cplxblur=20.0 / qblur=0.5 / vbv_maxrate=20000 / vbv_bufsize=25000 / nal_hrd=none / ip_ratio=1.35 / aq=1:0.80
Язык : Swedish
Default : Да
Forced : Нет
Аудио #1
Идентификатор : 2
Формат : AC-3
Формат/Информация : Audio Coding 3
Расширение режима : CM (complete main)
Параметр Endianness формата : Big
Идентификатор кодека : A_AC3
Продолжительность : 1 ч. 35 м.
Вид битрейта : Постоянный
Битрейт : 448 Кбит/сек
Каналы : 6 каналов
Расположение каналов : Front: L C R, Side: L R, LFE
Частота : 48,0 КГц
Битовая глубина : 16 бит
Метод сжатия : С потерями
Размер потока : 305 Мбайт (14%)
Заголовок : MVO | DD 5.1 @ 448 kbps - ТВ5
Язык : Russian
Default : Да
Forced : Да
Аудио #2
Идентификатор : 3
Формат : AC-3
Формат/Информация : Audio Coding 3
Расширение режима : CM (complete main)
Параметр Endianness формата : Big
Идентификатор кодека : A_AC3
Продолжительность : 1 ч. 35 м.
Вид битрейта : Постоянный
Битрейт : 448 Кбит/сек
Каналы : 6 каналов
Расположение каналов : Front: L C R, Side: L R, LFE
Частота : 48,0 КГц
Битовая глубина : 16 бит
Метод сжатия : С потерями
Размер потока : 305 Мбайт (14%)
Заголовок : Original | DD 5.1 @ 448 kbps
Язык : English
Default : Нет
Forced : Нет
Текст #1
Идентификатор : 4
Формат : UTF-8
Идентификатор кодека : S_TEXT/UTF8
Идентификатор кодека/Информация : UTF-8 Plain Text
Язык : Russian
Default : Нет
Forced : Нет
Текст #2
Идентификатор : 5
Формат : UTF-8
Идентификатор кодека : S_TEXT/UTF8
Идентификатор кодека/Информация : UTF-8 Plain Text
Язык : English
Default : Нет
Forced : Нет

[email protected]

avs [info]: 988x424p 1:1 @ 10000000/416667 fps (cfr)
x264 [info]: using SAR=1/1
x264 [info]: using cpu capabilities: MMX2 SSE2Fast SSSE3 FastShuffle SSE4.2 AVX XOP FMA4 SSEMisalign LZCNT
x264 [info]: profile High, level 4.1
x264 [info]: frame I:892 Avg QP:19.04 size: 44300
x264 [info]: frame P:31355 Avg QP:20.48 size: 20869
x264 [info]: frame B:104966 Avg QP:22.08 size: 9653
x264 [info]: consecutive B-frames: 1.9% 3.5% 9.4% 30.1% 16.9% 26.7% 4.6% 2.1% 1.6% 0.7% 0.8% 1.2% 0.4%
x264 [info]: mb I I16..4: 19.9% 63.2% 17.0%
x264 [info]: mb P I16..4: 4.1% 12.4% 2.2% P16..4: 36.0% 18.0% 12.7% 0.6% 0.1% skip:14.1%
x264 [info]: mb B I16..4: 0.2% 1.5% 0.2% B16..8: 38.5% 12.7% 3.9% direct: 9.3% skip:33.5% L0:44.9% L1:43.4% BI:11.7%
x264 [info]: 8x8 transform intra:68.5% inter:65.5%
x264 [info]: direct mvs spatial:98.6% temporal:1.4%
x264 [info]: coded y,uvDC,uvAC intra: 75.3% 78.8% 54.9% inter: 34.1% 39.4% 6.0%
x264 [info]: i16 v,h,dc,p: 67% 10% 6% 17%
x264 [info]: i8 v,h,dc,ddl,ddr,vr,hd,vl,hu: 14% 6% 6% 10% 15% 15% 13% 12% 10%
x264 [info]: i4 v,h,dc,ddl,ddr,vr,hd,vl,hu: 13% 6% 5% 9% 15% 16% 13% 12% 11%
x264 [info]: i8c dc,h,v,p: 42% 18% 22% 18%
x264 [info]: Weighted P-Frames: Y:9.5% UV:5.1%
x264 [info]: ref P L0: 41.2% 11.3% 16.1% 7.7% 5.9% 4.7% 3.9% 2.5% 2.3% 2.1% 2.0% 0.4% 0.0%
x264 [info]: ref B L0: 69.1% 11.7% 6.5% 3.6% 2.7% 2.2% 1.8% 1.2% 0.8% 0.4%
x264 [info]: ref B L1: 92.0% 8.0%
x264 [info]: kb/s:2388.71
x264 [total]: encoded 137213 frames, 9.70 fps, 2388.71 kb/s
Скриншоты:
         
         
Other forum [Profile] [PM]
Display posts from previous:    
Reply to topic

The time now is: Today 11:50

All times are GMT + 3 Hours



You cannot post new topics in this forum
You cannot reply to topics in this forum
You cannot edit your posts in this forum
You cannot delete your posts in this forum
You cannot vote in polls in this forum
You cannot attach files in this forum
You cannot download files in this forum