Today is a free download without charge Download

Даю год / I Give It a Year (Дэн Мазер / Dan Mazer) [2013.., Великобритания, Франция, Германия, Комедия, Мелодрама, BDRip] [1080p]

Reply to topic
 
Author
Message

Meshanik ®

Gender:

Longevity: 8 years 10 months

Posts: 3866

Location: Los Angeles

Торрент-статистика

Post 11-May-2013 12:07

[Quote]

Даю год / I Give It a Year- Русское название: Даю год
Оригинальное название: I Give It a Year
Год выпуска: 2013
Производство: Великобритания, Франция, Германия
Жанр: Комедия, Мелодрама
Продолжительность: 01:37:25
Перевод: Дублированный
Субтитры: Отсутствуют
Режиссер: Дэн Мазер / Dan Mazer
Продюсер: Тим Беван, Эрик Феллнер, Крис Тикье
Актеры: Роуз Бирн, Рейф Сполл, Анна Фэрис, Саймон Бейкер, Александр Макквин, Стивен Мерчант, Джейн Эшер, Теренс Харви, Минни Драйвер, Джейсон Флеминг
Описание фильма:
Фильм в комедийном ключе поведает о всевозможных проблемах и трудностях, с которыми приходится сталкиваться молодоженам в первый год их семейной жизни.

Дата мировой премьеры: 17 января 2013
Дата российской премьеры: 14 марта 2013, «Каскад»
Дата выхода DVD релиза: Апрель 2013, «Новый Диск»
Качество видео: BDRip 1080p
Видеокодек: MPEG-4 AVC/H.264
Видео: H264, 9183 Кбит/сек, 1920x804, 23,976 кадра/сек
Аудио #1: Русский: DTS, 1536 кбит/c, 5.1, 48 kHz, 24 bit - дублированный
Аудио #2: Английский: DTS, 1536 кбит/c, 5.1, 48 kHz, 24 bit

Сохранены оригинальные чаптеры как на Blu-Ray

Рецензия, отзыв о фильме:

Недолюбовь = недобрак
Мне очень странно видеть, что к комедиям подобного толка кто-то всерьёз относится как к пропаганде или агитации. Фильм рассказывает нам о том, как бывает, а не о том как должно быть.
Нэт и Джош встретились, влюбились и поженились.
Все три действа совершенны в состоянии амурного аффекта, что зачастую ведёт к неизменному разбору полётов, копанию в самом себе и отношениях тогда, когда, по большому счёту, делать это уже поздно.
Поздно, потому что обручальное кольцо плотно опоясывает фалангу безымянного пальца, штамп в паспорте фосфорицирует даже в кромешной темноте, друзья-коллеги-родичи дружно умиляются тому как вы хорошо смотритесь вместе, да и вообще — «неудобно как-то что-то менять».
И вот, однажды, ты засыпаешь под аккомпанемент вопросов, которые бьют под дых все твои извилины:
- «А может, мы поторопились? А может мы не созданы друг для друга?».
Это робкое «может», казалось бы, не предвещает ничего ужасного — подумаешь, полуночный вопрос воспалённого сознания. Ты конечно же отгоняешь мрачные думы прочь, теснее прижимаясь к спящему рядышком, но звоночек прозвенел достаточно громко и ясно для того, чтобы ты точно понял, (нет, не признался самому себе, а просто понял) что это означает.
Ну а потом, после систематических аналогичных звоночков, начинает греметь уже серьёзный, тревожный набат, после которого ты либо смиряешься, либо сжигаешь все мосты — на горизонте внезапно замаячил ТОТ САМЫЙ ЧЕЛОВЕК. Тут уже на ночные бредни всё не скинешь, не отмахнёшься и не забудешь.
Джошу и Нэт крайне повезло, в том, что им так рано удалось осознать насколько они непохожи в мире, находящемся за пределами окуляров, некогда надетых ими, розовых очков.
Повезло, потому что они не поняли эту пугающую истину тогда, когда стабильность, привычка и дети, станут основными отговорками для того, чтобы прожить жизнь с тем, про кого ты всегда будешь думать с приставкой «НО».
Им повезло, потому что, когда подобный вопрос терзает тебя после 20-ти лет брака — это, возможно, жажда приключений; когда после 10-ти лет брака — это, возможно, кризис; когда после 3-ёх месяцев — это, определённо, звездец. Некоторые называют это притиркой, но на самом деле — это звездатый звездец, что необходимо признавать, а не приукрашивать гирляндами былых счастливых мгновений.
Благодаря новоиспечённой симпатии Нэт и отголоску прошлого Джоша, они увидели свою проблему в разрезе и признали то, на что у иных не хватает смелости-они признали, что их недолюбовь привела к недобраку, а жить ровно в половину — невозможно.
Конечно, кино это кино — тут они и поняли всё одновременно, и «маячащие на горизонте» появились в унисон, и полюбили друг друга все так ладненько, и расстались по-доброму, и смачные поцелуи в хэппи энде. Спишем это на издержки жанра и неизменные клише.
Из-за своих философских экскурсов в глубины фильма, я забыла упомянуть, что всё это обставлено довольно смешно и комично.
Да, это не шедевр, не уморительная комедия, пестрящая крылатыми шутками, и навряд ли станет знаковым фильмом в вашей жизни, но поржать и задуматься, задуматься и поржать, он вас заставит определённо. Шлаку такое не под силу, поэтому просмотр «Даю год» — это, как минимум, не совсем зря потраченное время.

MediaInfo:

Общее
Уникальный идентификатор : 231363228372441669129639416844377264710 (0xAE0EEFDC4CC25500BCECB9F40B061246)
Полное имя : D:\Video\I.Give.It.A.Year.2013.1080p.BDRip.dts.Rus.Eng.mkv
Формат : Matroska
Версия формата : Version 2
Размер файла : 8,47 Гбайт
Продолжительность : 1 ч. 37 м.
Общий поток : 12,4 Мбит/сек
Название фильма : from VarMkn
Дата кодирования : UTC 2013-05-09 21:51:02
Программа кодирования : mkvmerge v5.4.0 ('Piper') built on Mar 10 2012 13:34:39
Библиотека кодирования : libebml v1.2.3 + libmatroska v1.3.0
Видео
Идентификатор : 1
Формат : AVC
Формат/Информация : Advanced Video Codec
Профиль формата : [url=mailto:[email protected]][email protected][/url]
Параметр CABAC формата : Да
Параметр ReFrames формата : 5 кадров
Идентификатор кодека : V_MPEG4/ISO/AVC
Продолжительность : 1 ч. 37 м.
Битрейт : 9183 Кбит/сек
Номинальный битрейт : 9724 Кбит/сек
Ширина : 1920 пикселей
Высота : 804 пикселя
Соотношение сторон : 2,40:1
Частота кадров : 23,976 кадра/сек
Цветовое пространство : YUV
Субдискретизация насыщенности : 4:2:0
Битовая глубина : 8 бит
Тип развёртки : Прогрессивная
Бит/(Пиксели*Кадры) : 0.248
Размер потока : 6,25 Гбайт (74%)
Библиотека кодирования : x264 core 130 r2273 b3065e6
Настройки программы : cabac=1 / ref=5 / deblock=1:0:0 / analyse=0x3:0x113 / me=umh / subme=7 / psy=1 / psy_rd=1.00:0.00 / mixed_ref=1 / me_range=16 / chroma_me=1 / trellis=1 / 8x8dct=1 / cqm=0 / deadzone=21,11 / fast_pskip=1 / chroma_qp_offset=-2 / threads=18 / lookahead_threads=3 / sliced_threads=0 / nr=0 / decimate=1 / interlaced=0 / bluray_compat=0 / constrained_intra=0 / bframes=3 / b_pyramid=2 / b_adapt=1 / b_bias=0 / direct=3 / weightb=1 / open_gop=0 / weightp=2 / keyint=240 / keyint_min=23 / scenecut=40 / intra_refresh=0 / rc_lookahead=40 / rc=abr / mbtree=1 / bitrate=9724 / ratetol=1.0 / qcomp=0.60 / qpmin=0 / qpmax=69 / qpstep=4 / ip_ratio=1.40 / aq=1:1.00
Язык : English
Default : Да
Forced : Нет
Аудио #1
Идентификатор : 2
Формат : DTS
Формат/Информация : Digital Theater Systems
Идентификатор кодека : A_DTS
Продолжительность : 1 ч. 37 м.
Вид битрейта : Постоянный
Битрейт : 1510 Кбит/сек
Каналы : 6 каналов
Расположение каналов : Front: L C R, Side: L R, LFE
Частота : 48,0 КГц
Битовая глубина : 24 бит
Метод сжатия : С потерями
Размер потока : 1,03 Гбайт (12%)
Заголовок : DTS 1536 - Dub
Язык : Russian
Default : Нет
Forced : Нет
Аудио #2
Идентификатор : 3
Формат : DTS
Формат/Информация : Digital Theater Systems
Идентификатор кодека : A_DTS
Продолжительность : 1 ч. 37 м.
Вид битрейта : Постоянный
Битрейт : 1510 Кбит/сек
Каналы : 6 каналов
Расположение каналов : Front: L C R, Side: L R, LFE
Частота : 48,0 КГц
Битовая глубина : 24 бит
Метод сжатия : С потерями
Размер потока : 1,03 Гбайт (12%)
Заголовок : DTS 1536 - Original
Язык : English
Default : Нет
Forced : Нет
Меню
00:00:00.000 : en:00:00:00.000
00:00:33.492 : en:00:00:33.492
00:10:28.169 : en:00:10:28.169
00:23:03.882 : en:00:23:03.882
00:34:08.588 : en:00:34:08.588
00:47:15.541 : en:00:47:15.541
01:00:37.092 : en:01:00:37.092
01:11:31.704 : en:01:11:31.704
01:20:38.250 : en:01:20:38.250
Скриншоты:
         
         
Other forum [Profile] [PM]

Dracula

Longevity: 7 years 6 months

Posts: 11224

Торрент-статистика

Post 11-May-2013 15:22 (after 3 hours)

Топик был перенесен из форума Фильмы 2013 (новинки) в форум Новинки (DVD, HD Video)


RUGUI
 

Dracula

Longevity: 7 years 6 months

Posts: 11224

Торрент-статистика

Post 02-Jan-2014 15:52 (after 7 months 22 days)

Топик был перенесен из форума Новинки (DVD, HD Video) в форум Зарубежное кино (HD Video)


kogesan
 
Display posts from previous:    
Reply to topic

The time now is: Today 19:19

All times are GMT + 3 Hours



You cannot post new topics in this forum
You cannot reply to topics in this forum
You cannot edit your posts in this forum
You cannot delete your posts in this forum
You cannot vote in polls in this forum
You cannot attach files in this forum
You cannot download files in this forum