Today is a free download without charge Download

Дублёр (Евгений Абызов) [2012, комедия, BDRip 720p]

Reply to topic
 
Author
Message

Omen ®

Longevity: 8 years 10 months

Posts: 181086

Торрент-статистика

Post 11-May-2013 09:31

[Quote]

Дублёр
Страна: Россия
Студия: Enjoy Movies
Жанр: комедия
Год выпуска: 2012
Продолжительность: 01:23:34
Субтитры: нет
Навигация по главам: есть
Режиссер: Евгений Абызов
В ролях: Александр Ревва, Кристина Асмус, Дмитрий Хрусталев, Людмила Артемьева, Татьяна Орлова, Ксения Буравская, Варвара Малкова, Александра Кимаева, Евгений Шиманович, Алексей Рязанцев
Описание: Главный герой нашей истории - успешный актер, звезда шоу-бизнеса Игорь Успенский. Его жизнь - сплошные съемки, концерты, презентации, корпоративы, интервью и светские тусовки. Он вынужден «крутиться» день и ночь, у него нет выходных и праздников. А его очаровательная жена и прекрасная дочка видят его в лучшем случае поздно ночью, когда он приезжает домой, чтобы поспать хотя бы пару часов. Но все труды не проходят даром. Игорь очень популярен и однажды его кандидатуру выдвигают на премию «Человек года» - теперь ему нужно еще больше времени, чтобы победить главного конкурента - певца Михаила Стасова, главные хиты которого свели с ума всех женщин России...

Релиз: fanatus
Качество видео: BDRip 720p
Исходник: Blu-Ray (Rus)
Контейнер: MKV
Видео: MPEG-4 AVC, 5000 kbps, 1280x582 (2.20:1), 24.000 fps, 0.280 bit/pixel
Аудио: DTS, 6 ch, 48 kHz, 1510 kbps

MediaInfo

General
Unique ID : 177071183108196145175207232288482553594 (0x8536AB5CB97F03A6BF82DA7886FA6EFA)
Complete name : D:\Dubler.2012.x264.BDRip.720p.fanatus.mkv
Format : Matroska
Format version : Version 2
File size : 3.80 GiB
Duration : 1h 23mn
Overall bit rate : 6 508 Kbps
Movie name : Dubler (2012) - fanatus
Encoded date : UTC 2013-05-10 11:35:42
Writing application : mkvmerge v3.4.0 ('Rapunzel') сборка от May 15 2010 09:38:20
Writing library : libebml v0.8.0 + libmatroska v0.9.0
Video
ID : 1
Format : AVC
Format/Info : Advanced Video Codec
Format profile : [email protected]
Format settings, CABAC : Yes
Format settings, ReFrames : 10 frames
Codec ID : V_MPEG4/ISO/AVC
Duration : 1h 23mn
Bit rate : 5 000 Kbps
Width : 1 280 pixels
Height : 582 pixels
Display aspect ratio : 2.2:1
Frame rate : 24.000 fps
Color space : YUV
Chroma subsampling : 4:2:0
Bit depth : 8 bits
Scan type : Progressive
Bits/(Pixel*Frame) : 0.280
Stream size : 2.84 GiB (75%)
Title : Dubler (2012)
Writing library : x264 core 132 r2323+704+51 d571b1c tMod [[email protected] X86]
Encoding settings : cabac=1 / ref=10 / deblock=1:-3:-3 / analyse=0x3:0x113 / me=tesa / subme=11 / psy=1 / fade_compensate=0.00 / psy_rd=1.05:0.05 / mixed_ref=1 / me_range=48 / chroma_me=1 / trellis=2 / 8x8dct=1 / cqm=0 / deadzone=21,11 / fast_pskip=0 / chroma_qp_offset=-3 / threads=16 / lookahead_threads=4 / sliced_threads=0 / nr=0 / decimate=0 / interlaced=0 / bluray_compat=0 / constrained_intra=0 / fgo=0 / bframes=11 / b_pyramid=2 / b_adapt=2 / b_bias=0 / direct=3 / weightb=1 / open_gop=0 / weightp=2 / keyint=240 / keyint_min=24 / scenecut=40 / intra_refresh=0 / rc_lookahead=240 / rc=2pass / mbtree=0 / bitrate=5000 / ratetol=1.0 / qcomp=0.75 / qpmin=0 / qpmax=69 / qpstep=4 / cplxblur=20.0 / qblur=0.5 / vbv_maxrate=50000 / vbv_bufsize=62500 / nal_hrd=none / ip_ratio=1.30 / pb_ratio=1.20 / aq=4:0.80 / aq-sensitivity=10.00 / aq-factor=1.00:1.00:1.00 / aq2=0 / aq3=0
Language : Russian
Default : Yes
Forced : No
Matrix coefficients : BT.709-5, BT.1361, IEC 61966-2-4 709, SMPTE RP177
Audio
ID : 2
Format : DTS
Format/Info : Digital Theater Systems
Codec ID : A_DTS
Duration : 1h 23mn
Bit rate mode : Constant
Bit rate : 1 510 Kbps
Channel(s) : 6 channels
Channel positions : Front: L C R, Side: L R, LFE
Sampling rate : 48.0 KHz
Bit depth : 16 bits
Compression mode : Lossy
Stream size : 902 MiB (23%)
Title : Original
Language : Russian
Default : Yes
Forced : No
Menu
00:00:00.000 : en:
00:06:00.375 : en:
00:13:55.833 : en:
00:22:29.875 : en:
00:27:09.666 : en:
00:36:01.041 : en:
00:42:06.666 : en:
00:50:57.041 : en:
01:00:46.458 : en:
01:05:38.166 : en:
01:10:03.708 : en:
01:20:13.291 : en:

x264 [info]

x264 [info]: 1280x582p 1:1 @ 24/1 fps (cfr)
x264 [info]: frame I:1308 Avg QP:14.32 size:122664
x264 [info]: frame P:28368 Avg QP:16.45 size: 47427
x264 [info]: frame B:90669 Avg QP:17.63 size: 17932
x264 [info]: consecutive B-frames: 2.7% 4.0% 11.1% 25.8% 19.4% 30.5% 4.0% 1.3% 0.5% 0.3% 0.2% 0.2%
x264 [info]: mb I I16..4: 9.9% 68.4% 21.7%
x264 [info]: mb P I16..4: 1.8% 14.2% 1.9% P16..4: 28.8% 33.1% 14.0% 0.0% 0.0% skip: 6.1%
x264 [info]: mb B I16..4: 0.4% 1.8% 0.2% B16..8: 31.5% 23.5% 5.2% direct: 9.7% skip:27.7% L0:40.8% L1:40.0% BI:19.2%
x264 [info]: 8x8 transform intra:77.1% inter:58.4%
x264 [info]: direct mvs spatial:98.1% temporal:1.9%
x264 [info]: coded y,uvDC,uvAC intra: 81.6% 87.1% 75.7% inter: 31.9% 42.3% 21.4%
x264 [info]: i16 v,h,dc,p: 47% 12% 6% 35%
x264 [info]: i8 v,h,dc,ddl,ddr,vr,hd,vl,hu: 15% 9% 10% 8% 11% 12% 11% 12% 12%
x264 [info]: i4 v,h,dc,ddl,ddr,vr,hd,vl,hu: 21% 10% 7% 7% 12% 12% 10% 10% 10%
x264 [info]: i8c dc,h,v,p: 44% 21% 21% 15%
x264 [info]: Weighted P-Frames: Y:3.0% UV:2.1%
x264 [info]: ref P L0: 47.1% 10.1% 19.0% 6.3% 5.5% 3.4% 3.3% 1.7% 1.8% 1.5% 0.3% 0.0%
x264 [info]: ref B L0: 75.6% 11.9% 4.9% 2.6% 1.9% 1.4% 1.1% 0.5% 0.3%
x264 [info]: ref B L1: 93.9% 6.1%
x264 [info]: kb/s:4996.48
x264 [info]: encoded 120345 frames, 1.970 fps, 4996.48 kb/s, 2986.7 MB

Скриншот c названием фильма

Source vs Rip




Other forum [Profile] [PM]
Display posts from previous:    
Reply to topic

The time now is: Today 13:19

All times are GMT + 3 Hours



You cannot post new topics in this forum
You cannot reply to topics in this forum
You cannot edit your posts in this forum
You cannot delete your posts in this forum
You cannot vote in polls in this forum
You cannot attach files in this forum
You cannot download files in this forum