Today is a free download without charge Download

Два Богатыря (Александр Давыдов ) [1989 г., мультфильм, DVB-AVC]

Reply to topic
 
Author
Message

Omen ®

Longevity: 7 years 11 months

Posts: 181087

Торрент-статистика

Post 11-May-2013 01:16

[Quote]

Два Богатыря
Жанр: мультфильм
Год выпуска: 1989
Продолжительность: 00:09:46
Режиссёр: Александр Давыдов
Описание: Сказка о двух богатырях - Иване и Батыре, которые отправились вызволять от злодеев прекрасных дев - Марью и Алтын - Шаш.
Доп. информация:

Трансляция спутникового канала: "Карусель"
Качество видео: DVB
Формат видео: MPEG-TS
Видео: MPEG4 Video (H264), [email protected] (4:3), анаморф, 25 fps, 4200 kbps
Аудио: MPEG Audio, 2 сh, 48 kHz, 192 kbps

MediaInfo

D:\Два Богатыря. (1989)_DVB by SLuMeP.ts
General #1
ID : 1 (0x1)
Complete name : D:\Два Богатыря. (1989)_DVB by SLuMeP.ts
Format : MPEG-TS
File size : 320 MiB
Duration : 9mn 46s
Overall bit rate mode : Variable
Overall bit rate : 4 579 Kbps
Video #2251
ID : 2251 (0x8CB)
Menu ID : 1 (0x1)
Format : AVC
Format/Info : Advanced Video Codec
Format profile : [email protected]
Format settings, CABAC : Yes
Format settings, ReFrames : 3 frames
Codec ID : 27
Duration : 9mn 46s
Bit rate : 4 159 Kbps
Width : 720 pixels
Height : 576 pixels
Display aspect ratio : 4:3
Frame rate : 25.000 fps
Standard : Component
Color space : YUV
Chroma subsampling : 4:2:0
Bit depth : 8 bits
Scan type : Progressive
Bits/(Pixel*Frame) : 0.401
Stream size : 291 MiB (91%)
Color primaries : BT.601 PAL
Transfer characteristics : BT.470 System B, BT.470 System G
Matrix coefficients : BT.601
Audio #2252
ID : 2252 (0x8CC)
Menu ID : 1 (0x1)
Format : MPEG Audio
Format version : Version 1
Format profile : Layer 2
Codec ID : 3
Duration : 9mn 46s
Bit rate mode : Constant
Bit rate : 192 Kbps
Channel(s) : 2 channels
Sampling rate : 48.0 KHz
Compression mode : Lossy
Delay relative to video : -40ms
Stream size : 13.4 MiB (4%)
Language : Russian

Скриншоты

Other forum [Profile] [PM]
Display posts from previous:    
Reply to topic

The time now is: Today 11:20

All times are GMT + 3 Hours



You cannot post new topics in this forum
You cannot reply to topics in this forum
You cannot edit your posts in this forum
You cannot delete your posts in this forum
You cannot vote in polls in this forum
You cannot attach files in this forum
You cannot download files in this forum