Today is a free download without charge Download

Миллион для чайников / The Brass Teapot ( Рамаа Мосли ) (2012, Фэнтези, Триллер, Комедия ) WEB-DLRip [H.264/720p-LQ] [VO]

Reply to topic
 
Author
Message

Витек1 ®

Gender:

Longevity: 8 years 3 months

Posts: 451

Location: Житомир

Торрент-статистика

Post 10-May-2013 10:50

[Quote]

Миллион для чайников / The Brass Teapot -«Всё, что не убьёт тебя, сделает богаче»- Русское название: Миллион для чайников
Оригинальное название: The Brass Teapot
Год выпуска: 2012
Производство: США / Atlantic Pictures (II), Laundry Films
Жанр: Фэнтези, Триллер, Комедия
Перевод: Одноголосый закадровый, любительский [Хихикающий доктор]
Субтитры: Английские
Вид субтитров: Вшитые отключаемые-Дата мировой премьеры: 8 сентября 2012
Дата российской премьеры: 4 апреля 2013, «Top Film Distribution»
Дата выхода DVD релиза: 30 мая 2013, «Новый Диск», «New Dream media»-Режиссер: Рамаа Мосли
Продюсер: Даррен Голдберг, Джеймс Грейвз, Рамаа Мосли
Актеры: Люсиль Уолтерс, Алиа Шокат, Джуно Темпл, Майкл Ангарано, Алексис Бледел, Мэтт Уолш, Бен Раппапорт, Бобби Мойнихэн, Билли Магнуссен, Томас Миддлдитч-Описание фильма:
Молодая пара испытывает проблемы с деньгами, постоянно ссорится и в какой-то момент еще и опускается до мелкого преступления - крадет непримечательный медный чайник. Оказывается, что безделушка обладает интересными свойствами: подобно лампе Аладдина она может исполнять желания. Правда, всего одно - давать наличные деньги. Для этого нужно всего ничего - чтобы рядом кто-то почувствовал физическую боль...- -Продолжительность: 01:41:29
Качество видео: WEB-DLRip-Видеокодек: MPEG-4 AVC/H.264
Битрейт видео: ~3964 Кбит/с
Размер кадра: 1280x540
Аудио#1: Русский - MP3, 128 Кбит/с (2 ch)
Аудио#2: Английский - AC3, 384 Кбит/с (6 ch)

MediaInfo

Общее
Уникальный идентификатор : 243234125496541582689328809257862308937 (0xB6FD3046B7AD45EB8779DA88C6A22449)
Полное имя : D:\Торрент раздача\The.Brass.Teapot.2012.720p.WEB-DL.mkv
Формат : Matroska
Версия формата : Version 2
Размер файла : 3,24 Гбайт
Продолжительность : 1 ч. 41 м.
Общий поток : 4567 Кбит/сек
Дата кодирования : UTC 2013-05-09 13:19:37
Программа кодирования : mkvmerge v2.9.8 ('C'est le bon') built on Nov 20 2009 13:01:15
Библиотека кодирования : libebml v0.7.9 + libmatroska v0.8.1
Видео
Идентификатор : 1
Формат : AVC
Формат/Информация : Advanced Video Codec
Профиль формата : [url=mailto:[email protected]][email protected][/url]
Параметр CABAC формата : Нет
Параметр ReFrames формата : 2 кадра
Идентификатор кодека : V_MPEG4/ISO/AVC
Продолжительность : 1 ч. 41 м.
Битрейт : 3964 Кбит/сек
Ширина : 1280 пикселей
Высота : 540 пикселей
Соотношение сторон : 2,40:1
Режим частоты кадров : Постоянный
Частота кадров : 23,976 кадра/сек
Цветовое пространство : YUV
Субдискретизация насыщенности : 4:2:0
Битовая глубина : 8 бит
Тип развёртки : Прогрессивная
Бит/(Пиксели*Кадры) : 0.239
Размер потока : 2,81 Гбайт (87%)
Язык : English
Default : Нет
Forced : Нет
Основные цвета : BT.709
Характеристики трансфера : BT.709
Коэффициенты матрицы : BT.709
Аудио #1
Идентификатор : 2
Формат : MPEG Audio
Версия формата : Version 1
Профиль формата : Layer 3
Идентификатор кодека : A_MPEG/L3
Идентификатор кодека/Подсказка : MP3
Продолжительность : 1 ч. 41 м.
Вид битрейта : Постоянный
Битрейт : 128 Кбит/сек
Каналы : 2 канала
Частота : 44,1 КГц
Метод сжатия : С потерями
Размер потока : 92,9 Мбайт (3%)
Язык : Russian
Default : Да
Forced : Нет
Аудио #2
Идентификатор : 3
Формат : AC-3
Формат/Информация : Audio Coding 3
Расширение режима : CM (complete main)
Параметр Endianness формата : Big
Идентификатор кодека : A_AC3
Продолжительность : 1 ч. 41 м.
Вид битрейта : Постоянный
Битрейт : 384 Кбит/сек
Каналы : 6 каналов
Расположение каналов : Front: L C R, Side: L R, LFE
Частота : 48,0 КГц
Битовая глубина : 16 бит
Метод сжатия : С потерями
Размер потока : 279 Мбайт (8%)
Язык : English
Default : Нет
Forced : Нет
Текст
Идентификатор : 4
Формат : UTF-8
Идентификатор кодека : S_TEXT/UTF8
Идентификатор кодека/Информация : UTF-8 Plain Text
Заголовок : CC
Язык : English
Default : Нет
Forced : Нет
Меню
00:00:00.000 : en:Chapter 1
00:09:02.000 : en:Chapter 2
00:17:36.000 : en:Chapter 3
00:27:39.000 : en:Chapter 4
00:35:38.000 : en:Chapter 5
00:45:32.000 : en:Chapter 6
00:53:09.000 : en:Chapter 7
01:02:50.000 : en:Chapter 8
01:11:13.000 : en:Chapter 9
01:22:12.000 : en:Chapter 10
01:32:53.000 : en:Chapter 11
01:36:42.000 : en:Chapter 12
Скриншоты:
         
         

_________________
Скачал сам, дай скачать другому!!!Не забудь сказать -
Other forum [Profile] [PM]
Display posts from previous:    
Reply to topic

The time now is: Today 05:12

All times are GMT + 3 Hours



You cannot post new topics in this forum
You cannot reply to topics in this forum
You cannot edit your posts in this forum
You cannot delete your posts in this forum
You cannot vote in polls in this forum
You cannot attach files in this forum
You cannot download files in this forum